ExtraTorrent.ag - The Largest Bittorent System Login   |    Register
ExtraTorrent.ag > Categories > Movies torrents > HD torrents


Browse Movies torrents

Knives.Out.2019.1080p.BluRay.H264.AAC-RARBG torrent


Download torrent: Download Knives.Out.2019.1080p.BluRay.H264.AAC-RARBG torrent Magnet link Bookmark Torrent: Knives.Out.2019.1080p.BluRay.H264.AAC-RARBG Knives.Out.2019.1080p.BluRay.H264.AAC-RARBG torrent | if not working, try instead: Magnet Link
Info hash: 2FB28629E16782308EA6947D0702FBB3E8A6CE68
Category: Categories > Movies torrents > HD torrents
Trackers:
3    View all torrent trackers >
Health:
 seeds: 44 ,  leechers: 6 |  Update >
Torrent language:  
Total Size: 2.50 GB
Torrent status: Added by trusted uploader Added by trusted uploader Trusted Uploader Site Friend Superman Sun
Uploader: Trusted Uploader Site Friend Superman Sun
Torrent added: 2020-02-14 01:37:11

Download Knives.Out.2019.1080p.BluRay.H264.AAC-RARBG torrent if not working, try downloading torrent using Download Knives.Out.2019.1080p.BluRay.H264.AAC-RARBG via Magnet Link




Torrent Description



Plot: When renowned crime novelist Harlan Thrombey (Christopher Plummer) is found dead at his estate just after his 85th birthday, the inquisitive and debonair Detective Benoit Blanc (Daniel Craig) is mysteriously enlisted to investigate. From Harlan’s dysfunctional family to his devoted staff, Blanc sifts through a web of red herrings and self-serving lies to uncover the truth behind Harlan’s untimely death.

Genre: Comedy | Crime | Drama | Mystery | Thriller
IMDB Rating: 8.0/10 From 161,494 Users
Directed by: Rian Johnson
Starring: Daniel Craig , Chris Evans , Ana de Armas , Jamie Lee Curtis

Video
ID : 1
Format : AVC
Format/Info : Advanced Video Codec
Format profile : [email protected]
Format settings : CABAC / 4 Ref Frames
Format settings, CABAC : Yes
Format settings, Reference frames : 4 frames
Codec ID : avc1
Codec ID/Info : Advanced Video Coding
Duration : 2 h 10 min
Bit rate : 2 500 kb/s
Width : 1 920 pixels
Height : 1 040 pixels
Display aspect ratio : 1.85:1
Frame rate mode : Constant
Frame rate : 23.976 (23976/1000) FPS
Color space : YUV
Chroma subsampling : 4:2:0
Bit depth : 8 bits
Scan type : Progressive
Bits/(Pixel*Frame) : 0.052
Stream size : 2.27 GiB (92%)
Writing library : x264 core 152 r2851M ba24899
Encoding settings : cabac=1 / ref=4 / deblock=1:-1:-1 / analyse=0x3:0x113 / me=umh / subme=9 / psy=1 / psy_rd=1.00:0.15 / mixed_ref=1 / me_range=24 / chroma_me=1 / trellis=2 / 8x8dct=1 / cqm=0 / deadzone=21,11 / fast_pskip=1 / chroma_qp_offset=-3 / threads=32 / lookahead_threads=4 / sliced_threads=0 / nr=0 / decimate=1 / interlaced=0 / bluray_compat=0 / constrained_intra=0 / bframes=3 / b_pyramid=2 / b_adapt=2 / b_bias=0 / direct=3 / weightb=1 / open_gop=0 / weightp=2 / keyint=250 / keyint_min=25 / scenecut=40 / intra_refresh=0 / rc_lookahead=50 / rc=2pass / mbtree=1 / bitrate=2500 / ratetol=1.0 / qcomp=0.60 / qpmin=0 / qpmax=69 / qpstep=4 / cplxblur=20.0 / qblur=0.5 / vbv_maxrate=31250 / vbv_bufsize=31250 / nal_hrd=none / filler=0 / ip_ratio=1.40 / aq=3:1.00
Encoded date : UTC 2020-02-14 00:09:28
Tagged date : UTC 2020-02-14 00:09:28
Codec configuration box : avcC

Audio
ID : 2
Format : AAC LC
Format/Info : Advanced Audio Codec Low Complexity
Codec ID : mp4a-40-2
Duration : 2 h 10 min
Duration_LastFrame : -11 ms
Bit rate mode : Constant
Bit rate : 224 kb/s
Channel(s) : 6 channels
Channel layout : C L R Ls Rs LFE
Sampling rate : 48.0 kHz
Frame rate : 46.875 FPS (1024 SPF)
Compression mode : Lossy
Stream size : 209 MiB (8%)
Language : English
Default : Yes
Alternate group : 1
Encoded date : UTC 2020-02-14 00:09:28
Tagged date : UTC 2020-02-14 00:09:28



#SirMadMax -> To avoid fakes, ALWAYS check that the torrent was added on ExtraTorrent.ag by SirMadMax

https://extratorrent.ag/



Download Knives.Out.2019.1080p.BluRay.H264.AAC-RARBG torrent


Comments (please add your comment)
1
posted by wowsex (2020-02-14 07:09:44)
wowsex avatar Tired of ordinary porn? Visit our website - crazyxxx.ga





Home - Browse Torrents - Upload Torrent - Stat - Forum - FAQ - Login
ExtraTorrent.ag is in compliance with copyrights
2006-2018 ExtraTorrent.ag

X
Attention! Use a VPN when Accessing Free Content !
Your IP address is - Country:
Your Internet provider Tracks your Activity! Hide your IP ADDRESS with a VPN!
Bonus: Get Lag-Free Streams & No popups with any VPN Purchased !

Download Here