ExtraTorrent.ag - The Largest Bittorent System Login   |    Register
ExtraTorrent.ag > Categories > Movies torrents > Bollywood/Desi torrents


Browse Movies torrents

Bala (2019) 1080p WEB-DL x264 Hindi DD2-~CancerBK00~- torrent


Download torrent: Download Bala (2019) 1080p WEB-DL x264 Hindi DD2-~CancerBK00~- torrent Magnet link Bookmark Torrent: Bala (2019) 1080p WEB-DL x264 Hindi DD2-~CancerBK00~- Bala (2019) 1080p WEB-DL x264 Hindi DD2-~CancerBK00~- torrent | if not working, try instead: Magnet Link
Info hash: 6B0D0C945CD2A8B7299203D75F78448C8CB07738
Category: Categories > Movies torrents > Bollywood/Desi torrents
Trackers:
40    View all torrent trackers >
Health:
 seeds: 10 ,  leechers: 1 |  Update >
Total Size: 3.00 GB
Torrent status: Added by trusted uploader Added by trusted uploader Trusted Uploader Site Friend Superman Sun
Uploader: Trusted Uploader Site Friend Superman Sun
Torrent added: 2020-01-18 11:08:46

Download Bala (2019) 1080p WEB-DL x264 Hindi DD2-~CancerBK00~- torrent if not working, try downloading torrent using Download Bala (2019) 1080p WEB-DL x264 Hindi DD2-~CancerBK00~- via Magnet Link




Torrent Description

Bala (2019) 1080p WEB-DL x264 Hindi DD2-~CancerBK00~- Bala (2019) 1080p WEB-DL x264 Hindi DD2-~CancerBK00~- https://www.imdb.com/title/tt9420648
Movie Name:-  Bala (2019)
Stars: Ayushmann Khurrana | Bhumi Pednekar | Yami Gautam | Javed Jaffrey | Saurabh Shukla | Sunita Rajwar | Seema Bhargava | Abhishek Banerjee | Deepika Chikhalia | Manoj Pahwa | Charu Agrawal | Sachin Chaudhary
Director: Amar Kaushik
Producer: Naman Chouhan | Jaspreet Kaur | Sanjeev Mishra | Vivek Rangachari | Ashok Shetty | Yogiraj Shetty | Dinesh Vijan
Writers: Niren Bhatt | Ravi Shankar Muppa  |
Genres: Comedy
Language: Hindi
Release Date::- 07 November 2019
Runtime: 2hrs 13min 01sec
File Size.:- 3 GiB
Focuses on a young man Gaurav Rawat aka Bala (Ayushmann Khurrana) plagued with premature baldness and the way he copes with the situation. Revolving around his everyday struggle due to hair loss, the film also explores Bala's relationship with the two women in his life, played by Yami Gautam and Bhumi Pednekar.It tells the story of a man who is balding prematurely and how he copes up with the situation.General
Complete name                            : C:\Users\admin\Videos\Bala (2019)  हिंदी Hindi - Bollywood 1080p WEB-DL x264 Hindi DD2-~CancerBK00~-\Bala (2019)  हिंदी Hindi - Bollywood 1080p WEB-DL x264 Hindi DD2-~CancerBK00~-.mp4
Format                                   : MPEG-4
Format profile                           : Base Media
Codec ID                                 : isom
File size                                : 3.00 GiB
Duration                                 : 2h 13mn
Overall bit rate                         : 3 232 Kbps
Movie name                               : Bala (2019) 1080p WEB-Rip x264 Hindi DD2.0 - ESUBS ~ Ranvijay
Performer                                : Ayushmann Khurrana, Bhumi Pednekar, Yami Gautam
Genre                                    : Comedy
Recorded date                            : 2019
Writing application                      : Lavf56.40.101
Comment                                  : -~CancerBK00~-
Xtra                                     : WM/Writer

Video
ID                                       : 2
Format                                   : AVC
Format/Info                              : Advanced Video Codec
Format profile                           : [email protected]
Format settings, CABAC                   : Yes
Format settings, ReFrames                : 5 frames
Codec ID                                 : avc1
Codec ID/Info                            : Advanced Video Coding
Duration                                 : 2h 13mn
Bit rate                                 : 3 033 Kbps
Width                                    : 1 920 pixels
Height                                   : 800 pixels
Display aspect ratio                     : 2.40:1
Frame rate mode                          : Variable
Frame rate                               : 24.000 fps
Minimum frame rate                       : 23.634 fps
Maximum frame rate                       : 24.390 fps
Color space                              : YUV
Chroma subsampling                       : 4:2:0
Bit depth                                : 8 bits
Scan type                                : Progressive
Bits/(Pixel*Frame)                       : 0.082
Stream size                              : 2.82 GiB (94%)
Writing library                          : x264 core 157 r2935 545de2f
Encoding settings                        : cabac=1 / ref=5 / deblock=1:-1:-1 / analyse=0x3:0x113 / me=hex / subme=9 / psy=1 / psy_rd=1.00:0.15 / mixed_ref=1 / me_range=16 / chroma_me=1 / trellis=2 / 8x8dct=1 / cqm=0 / deadzone=21,11 / fast_pskip=1 / chroma_qp_offset=-3 / threads=12 / lookahead_threads=1 / sliced_threads=0 / nr=1000 / decimate=1 / interlaced=0 / bluray_compat=0 / constrained_intra=0 / bframes=3 / b_pyramid=2 / b_adapt=1 / b_bias=0 / direct=3 / weightb=1 / open_gop=0 / weightp=2 / keyint=240 / keyint_min=24 / scenecut=40 / intra_refresh=0 / rc_lookahead=50 / rc=2pass / mbtree=1 / bitrate=3033 / ratetol=1.0 / qcomp=0.60 / qpmin=0 / qpmax=69 / qpstep=4 / cplxblur=20.0 / qblur=0.5 / vbv_maxrate=62500 / vbv_bufsize=78125 / nal_hrd=none / filler=0 / ip_ratio=1.40 / aq=1:1.00
Color primaries                          : Generic film
Transfer characteristics                 : BT.709
Matrix coefficients                      : BT.709

Audio
ID                                       : 1
Format                                   : AAC
Format/Info                              : Advanced Audio Codec
Format profile                           : LC
Codec ID                                 : 40
Duration                                 : 2h 13mn
Bit rate mode                            : Constant
Bit rate                                 : 192 Kbps
Channel(s)                               : 2 channels
Channel positions                        : Front: L R
Sampling rate                            : 48.0 KHz
Compression mode                         : Lossy
Stream size                              : 183 MiB (6%)
Language                                 : Hindi
Next Movie:



#cancerbk00 -> To avoid fakes, ALWAYS check that the torrent was added on ExtraTorrent.ag by cancerbk00

https://extratorrent.ag/



Download Bala (2019) 1080p WEB-DL x264 Hindi DD2-~CancerBK00~- torrent


Comments (please add your comment)
1
posted by iamhimanshuj6 (2020-01-19 08:56:16)
iamhimanshuj6 avatar Request you friend please upload Sunday bollywood movie 2008 in hd





Home - Browse Torrents - Upload Torrent - Stat - Forum - FAQ - Login
ExtraTorrent.ag is in compliance with copyrights
2006-2018 ExtraTorrent.ag

X
Attention! Use a VPN when Accessing Free Content !
Your IP address is - Country:
Your Internet provider Tracks your Activity! Hide your IP ADDRESS with a VPN!
Bonus: Get Lag-Free Streams & No popups with any VPN Purchased !

Download Here