ExtraTorrent.ag - The Largest Bittorent System Login   |    Register
ExtraTorrent.ag > Categories > Movies torrents > Bollywood/Desi torrents


Browse Movies torrents

Bala (2019) 1080p WEB-Rip x264 Hindi DD2.0 - ESUBS ~ Ranvijay - DusIcTv torrent


Download torrent: Download Bala (2019) 1080p WEB-Rip x264 Hindi DD2.0 - ESUBS ~ Ranvijay - DusIcTv torrent Magnet link Bookmark Torrent: Bala (2019) 1080p WEB-Rip x264 Hindi DD2.0 - ESUBS ~ Ranvijay - DusIcTv Bala (2019) 1080p WEB-Rip x264 Hindi DD2.0 - ESUBS ~ Ranvijay - DusIcTv torrent | if not working, try instead: Magnet Link
Info hash: 6352A1C5D2A10F5FBA2FBB8DEE917AA458E9980B
Category: Categories > Movies torrents > Bollywood/Desi torrents
Trackers:
28    View all torrent trackers >
Health:
 seeds: 0 ,  leechers: 0 |  Update >
Total Size: 3.00 GB
Torrent status: Added by trusted uploader Added by trusted uploader Trusted Uploader Site Friend Superman Sun
Uploader: Trusted Uploader Site Friend Superman Sun
Torrent added: 2020-01-17 15:09:46

Download Bala (2019) 1080p WEB-Rip x264 Hindi DD2.0 - ESUBS ~ Ranvijay - DusIcTv torrent if not working, try downloading torrent using Download Bala (2019) 1080p WEB-Rip x264 Hindi DD2.0 - ESUBS ~ Ranvijay - DusIcTv via Magnet Link




Torrent Description



Bala (2019) 1080p WEB-Rip x264 Hindi DD2.0 - ESUBS ~ Ranvijay - DusIcTv

General
Format : Matroska
Format version : Version 4 / Version 2
File size : 3.00 GiB
Duration : 2 h 13 min
Overall bit rate : 3 227 kb/s
Movie name : Bala (2019) 1080p WEB-Rip x264 Hindi DD2.0 - ESUBS ~ Ranvijay

Video
ID : 1
Format : AVC
Format/Info : Advanced Video Codec
Format profile : [email protected]
Format settings : CABAC / 5 Ref Frames
Format settings, CABAC : Yes
Format settings, RefFrames : 5 frames
Codec ID : V_MPEG4/ISO/AVC
Duration : 2 h 13 min
Bit rate : 3 033 kb/s
Width : 1 920 pixels
Height : 800 pixels
Display aspect ratio : 2.40:1
Frame rate mode : Constant
Frame rate : 24.000 FPS
Color space : YUV
Chroma subsampling : 4:2:0
Bit depth : 8 bits
Scan type : Progressive
Bits/(Pixel*Frame) : 0.082
Stream size : 2.82 GiB (94%)
Title : ~Ranvijay~
Default : Yes
Forced : No

Audio
ID : 2
Format : AC-3
Format/Info : Audio Coding 3
Codec ID : A_AC3
Duration : 2 h 13 min
Bit rate mode : Constant
Bit rate : 192 kb/s
Channel(s) : 2 channels
Channel positions : Front: L R
Sampling rate : 48.0 kHz
Frame rate : 31.250 FPS (1536 SPF)
Bit depth : 16 bits
Compression mode : Lossy
Stream size : 183 MiB (6%)
Title : ~Ranvijay~
Language : Hindi
Service kind : Complete Main
Default : Yes
Forced : Yes

Text #1
ID : 3
Format : UTF-8
Codec ID : S_TEXT/UTF8
Codec ID/Info : UTF-8 Plain Text
Duration : 2 h 10 min
Bit rate : 153 b/s
Count of elements : 2289
Stream size : 147 KiB (0%)
Title : ~Ranvijay~ [Color]
Language : English
Default : Yes
Forced : Yes

Text #2
ID : 4
Format : UTF-8
Codec ID : S_TEXT/UTF8
Codec ID/Info : UTF-8 Plain Text
Duration : 2 h 10 min
Bit rate : 69 b/s
Count of elements : 2289
Stream size : 66.9 KiB (0%)
Title : ~Ranvijay~
Language : English
Default : No
Forced : No




#TheFighter -> To avoid fakes, ALWAYS check that the torrent was added on ExtraTorrent.ag by TheFighter

https://extratorrent.ag/



Download Bala (2019) 1080p WEB-Rip x264 Hindi DD2.0 - ESUBS ~ Ranvijay - DusIcTv torrent


Comments (please add your comment)
1
posted by HollywoodFan (2020-01-17 22:02:21)
HollywoodFan avatar Poor Quality





Home - Browse Torrents - Upload Torrent - Stat - Forum - FAQ - Login
ExtraTorrent.ag is in compliance with copyrights
2006-2018 ExtraTorrent.ag

X
Attention! Use a VPN when Accessing Free Content !
Your IP address is - Country:
Your Internet provider Tracks your Activity! Hide your IP ADDRESS with a VPN!
Bonus: Get Lag-Free Streams & No popups with any VPN Purchased !

Download Here