ExtraTorrent.ag - The Largest Bittorent System Login   |    Register
Latest Articles
Most searched
Hot torrents
Movie Torrents
View Torrent Info: Terminator: Dark Fate (2019) [720p] [YTS] [YIFY]
View Torrent Info: Terminator: Dark Fate (2019) [720p] [YTS] [YIFY]
View Torrent Info: Dark Waters (2019) [720p] [YTS] [YIFY]
View Torrent Info: The Last Full Measure (2019) [720p] [YTS] [YIFY]
View Torrent Info: Break (2019) [720p] [YTS] [YIFY]
View Torrent Info: 24 Little Hours (2020) [720p] [YTS] [YIFY]
View Torrent Info: The Battle of Jangsari (2019) [720p] [YTS] [YIFY]
View Torrent Info: Disturbing the Peace (2020) [720p] [YTS] [YIFY]
View Torrent Info: Redbad (2018) [720p] [YTS] [YIFY]
View Torrent Info: Bait (2019) [720p] [YTS] [YIFY]
Hot torrents
TV Torrents
View Torrent Info: DCs.Legends.of.Tomorrow.S05E01.HDTV.x264-SVA[eztv]
View Torrent Info: Arrow.S08E08.HDTV.x264-SVA[eztv]
View Torrent Info: The.Good.Doctor.S03E12.HDTV.x264-SVA[eztv]
View Torrent Info: Manifest.S02E03.HDTV.x264-SVA[eztv]
View Torrent Info: Bull.2016.S04E12.HDTV.x264-KILLERS[eztv]
View Torrent Info: FBI.S02E12.HDTV.x264-SVA[eztv]
View Torrent Info: Supergirl.S05E10.HDTV.x264-KILLERS[eztv]
View Torrent Info: Batwoman.S01E10.HDTV.x264-SVA[eztv]
View Torrent Info: Power.2014.S06E13.480p.x264-mSD[eztv]
View Torrent Info: Vikings.S06E07.WEB.H264-GHOSTS[eztv]
ExtraTorrent.ag > Categories > Music torrents > Music Videos torrents


Browse Music torrents

Katatonia: Sanctitude (2015) (1080p / Dual Audio-Stereo / DTS) torrent


Download torrent: Download Katatonia: Sanctitude (2015) (1080p / Dual Audio-Stereo / DTS) torrent Magnet link Bookmark Torrent: Katatonia: Sanctitude (2015) (1080p / Dual Audio-Stereo / DTS) Katatonia: Sanctitude (2015) (1080p / Dual Audio-Stereo / DTS) torrent | if not working, try instead: Magnet Link
Info hash: 35C8CABEB254B0B25A829500D5A68143B3658257
Category: Categories > Music torrents > Music Videos torrents
Trackers:
1    View all torrent trackers >
Health:
 seeds: 16 ,  leechers: 14 |  Update >
Torrent language:  
Total Size: 7.70 GB
Torrent status: Added by trusted uploader Added by trusted uploader Trusted Uploader Site Friend Superman Sun
Uploader: Trusted Uploader Site Friend Superman Sun
Torrent added: 2020-01-13 12:29:45
 

Download Katatonia: Sanctitude (2015) (1080p / Dual Audio-Stereo / DTS) torrent if not working, try downloading torrent using Download Katatonia: Sanctitude (2015) (1080p / Dual Audio-Stereo / DTS) via Magnet Link




Torrent Description



"Sanctitude" is a live album/DVD release by Swedish progressive/alternative rock/metal act Katatonia. The album was released through Kscope Music in March 2015. "Sanctitude" bridges the gab between the band´s 10th and 11th full-length studio albums "Dethroned & Uncrowned (2013)" and "The Fall of Hearts (2016)". It´s a split release featuring both an audio disc and a concert DVD of the same show, filmed and recorded May 16th 2014, in London's Union Chapel as part of the "Dethroned & Uncrowned (2013)" tour. In addition to that the DVD part of the release also features a documentary titled "Beyond the Chapel", which among other things features interviews with both Anders Nyström (guitars) and Jonas Renkse (vocals). "Sanctitude" is also available on vinyl, featuring only the audio material.

As the show is from the tour supporting "Dethroned & Uncrowned (2013)", which is an acoustic version of "Dead End Kings (2012)", it´s no surprise that "Sanctitude" features a predominantly acoustic show, with focus on acoustic guitars and vocals, but with the occasional use of percussion and programming/keyboards (and the occasional use of electric guitar lead themes). The setlist is culled from various releases in the band´s relatively large discography. The oldest track is "Day" from "Brave Murder Day (1996)", but tracks like "Tonight´s Music", "Teargas", and "Gone" also represent the older (although not early doom/death part of the band´s discography), while tracks like "In the White", "Undo You", "Unfurl", and "The One You Are Looking for Is Not Here" (featuring Silje Wergeland from The Gathering on vocals), represent the latter part of the band´s discography (up until then). A mid-period album like is represented by no less than four tracks in "One Year from Now", "Sleeper", "Omerta", and "Evidence".

The band´s performance is more or less flawless and Renkse, who is naturally the center of the attention, is skillfully backed up with harmony vocals and choirs by both Nyström and session guitarist Bruce Soord (The Pineapple Thief). The DVD part of the album shows a relatively relaxed band but also a pretty introvert one, and it´s not many words that are said between the songs. Renkse is an incredibly paatos filled and emotive singer, but his stage performance has always been a bit shy and lacking presence. Katatonia let the music speak for itself instead, and when you can do it with this high level of professionalism and impactful emotional delivery, you don´t necessarily have to engage too much in audience communication. When that is said Renkse communicates more with the audience here, than I´ve ever heard him do before, and he generally just seems to be enjoying himself, which contributes greatly to the relaxed atmosphere of the show.

"Sanctitude" features an organic and well sounding production and overall the CD/DVD set is a high quality release, immortalizing a speciel event in the band´s career. Some tracks naturally translates well to the acoustic versions, while others have been re-arranged a bit, but none of them lose their original melancholic atmosphere and they all work pretty well. To my ears highlights include "Teargas", "One Year from Now", "Day" (which is about 100 times more interesting in this version compared to the original), and the beautiful "Idle Blood" (that melody is enchanting...). So upon conclusion "Sanctitude" is another high quality release by Katatonia and a 4 star (80%) rating is deserved. (Review by UMUR Info)

Media Info:

[ul]
[li]Unique ID : 240626931956507190677638101837212900151 (0xB5070FB5D1FB53FBA3EED69D5ACD5B37)[/li]
[li]Complete name : A:\[Music Video]\Katatonia - Sanctitude-Live at Union Chapel (2015).mkv[/li]
[li]Format : Matroska[/li]
[li]Format version : Version 4[/li]
[li]File size : 7.74 GiB[/li]
[li]Duration : 1 h 20 min[/li]
[li]Overall bit rate : 13.8 Mb/s[/li]
[li]Encoded date : UTC 2015-04-12 14:28:39[/li]
[li]Writing application : mkvmerge v6.8.0 ('Theme for Great Cities') 64bit built on Mar 2 2014 21:34:26[/li]
[li]Writing library : libebml v1.3.0 + libmatroska v1.4.1[/li]
[li][/li]
[li]Video[/li]
[li]ID : 1[/li]
[li]Format : AVC[/li]
[li]Format/Info : Advanced Video Codec[/li]
[li]Format profile : [email protected][/li]
[li]Format settings : CABAC / 4 Ref Frames[/li]
[li]Format settings, CABAC : Yes[/li]
[li]Format settings, Reference : 4 frames[/li]
[li]Codec ID : V_MPEG4/ISO/AVC[/li]
[li]Duration : 1 h 20 min[/li]
[li]Bit rate : 9 950 kb/s[/li]
[li]Width : 1 920 pixels[/li]
[li]Height : 1 080 pixels[/li]
[li]Display aspect ratio : 16:9[/li]
[li]Frame rate mode : Constant[/li]
[li]Frame rate : 29.970 (30000/1001) FPS[/li]
[li]Color space : YUV[/li]
[li]Chroma subsampling : 4:2:0[/li]
[li]Bit depth : 8 bits[/li]
[li]Scan type : Progressive[/li]
[li]Bits/(Pixel*Frame) : 0.160[/li]
[li]Stream size : 5.44 GiB (70%)[/li]
[li]Writing library : x264 core 146 r2538 121396c[/li]
[li]Encoding settings : cabac=1 / ref=4 / deblock=1:-3:-3 / analyse=0x3:0x133 / me=umh / subme=10 / psy=1 / psy_rd=1.00:0.15 / mixed_ref=1 / me_range=24 / chroma_me=1 / trellis=2 / 8x8dct=1 / cqm=0 / deadzone=21,11 / fast_pskip=1 / chroma_qp_offset=-3 / threads=6 / lookahead_threads=1 / sliced_threads=0 / nr=0 / decimate=1 / interlaced=0 / bluray_compat=0 / constrained_intra=0 / bframes=8 / b_pyramid=2 / b_adapt=2 / b_bias=0 / direct=3 / weightb=1 / open_gop=0 / weightp=2 / keyint=300 / keyint_min=29 / scenecut=40 / intra_refresh=0 / rc_lookahead=60 / rc=2pass / mbtree=1 / bitrate=9950 / ratetol=1.0 / qcomp=0.60 / qpmin=0 / qpmax=69 / qpstep=4 / cplxblur=20.0 / qblur=0.5 / vbv_maxrate=50000 / vbv_bufsize=62500 / nal_hrd=none / filler=0 / ip_ratio=1.40 / aq=1:1.00[/li]
[li]Default : Yes[/li]
[li]Forced : No[/li]
[li][/li]
[li]Audio #1[/li]
[li]ID : 2[/li]
[li]Format : PCM[/li]
[li]Format settings : Little / Signed[/li]
[li]Codec ID : A_PCM/INT/LIT[/li]
[li]Duration : 1 h 20 min[/li]
[li]Bit rate mode : Constant[/li]
[li]Bit rate : 2 304 kb/s[/li]
[li]Channel(s) : 2 channels[/li]
[li]Sampling rate : 48.0 kHz[/li]
[li]Bit depth : 24 bits[/li]
[li]Stream size : 1.30 GiB (17%)[/li]
[li]Default : Yes[/li]
[li]Forced : No[/li]
[li][/li]
[li]Audio #2[/li]
[li]ID : 3[/li]
[li]Format : DTS[/li]
[li]Format/Info : Digital Theater Systems[/li]
[li]Codec ID : A_DTS[/li]
[li]Duration : 1 h 20 min[/li]
[li]Bit rate mode : Constant[/li]
[li]Bit rate : 1 509 kb/s[/li]
[li]Channel(s) : 6 channels[/li]
[li]Channel layout : C L R Ls Rs LFE[/li]
[li]Sampling rate : 48.0 kHz[/li]
[li]Frame rate : 93.750 FPS (512 SPF)[/li]
[li]Bit depth : 24 bits[/li]
[li]Compression mode : Lossy[/li]
[li]Stream size : 869 MiB (11%)[/li]
[li]Default : No[/li]
[li]Forced : No[/li]
[li][/li]
[li]Menu[/li]
[li]00:00:00.000 : :In The White[/li]
[li]00:05:35.335 : :Ambitions[/li]
[li]00:10:24.624 : :Teargas[/li]
[li]00:13:36.816 : :Gone[/li]
[li]00:17:26.045 : :A Darkness Coming[/li]
[li]00:22:42.361 : :One Year From Now[/li]
[li]00:26:52.610 : :The Racing Heart[/li]
[li]00:31:17.876 : :Tonight's Music[/li]
[li]00:35:33.131 : :Sleeper[/li]
[li]00:40:12.410 : :Undo You[/li]
[li]00:45:00.698 : :Lethean[/li]
[li]00:49:46.984 : :Day[/li]
[li]00:54:27.264 : :Idle Blood[/li]
[li]00:59:12.549 : :Unfurl[/li]
[li]01:04:17.854 : :[/li]
[li]01:05:19.916 : :Omerta[/li]
[li]01:08:57.133 : :Evidence[/li]
[li]01:15:07.836 : :The One You Are Looking For Is Not Here[/li]
[/ul]



#blackgaze -> To avoid fakes, ALWAYS check that the torrent was added on ExtraTorrent.ag by blackgaze

https://extratorrent.ag/



Download Katatonia: Sanctitude (2015) (1080p / Dual Audio-Stereo / DTS) torrent


Comments (please add your comment)
No comments



Home - Browse Torrents - Upload Torrent - Stat - Forum - FAQ - Login
ExtraTorrent.ag is in compliance with copyrights
2006-2018 ExtraTorrent.ag

X
Attention! Use a VPN when Accessing Free Content !
Your IP address is - Country:
Your Internet provider Tracks your Activity! Hide your IP ADDRESS with a VPN!
Bonus: Get Lag-Free Streams & No popups with any VPN Purchased !

Download Here