ExtraTorrent.ag - The Largest Bittorent System Login   |    Register
Latest Articles
Most searched
Hot torrents
Movie Torrents
View Torrent Info: 6 Underground (2019) [720p] [YTS] [YIFY]
View Torrent Info: Code 8 (2019) [720p] [YTS] [YIFY]
View Torrent Info: The Great War (2019) [720p] [YTS] [YIFY]
View Torrent Info: Judy (2019) [720p] [YTS] [YIFY]
View Torrent Info: The Great Battle (2018) [720p] [YTS] [YIFY]
View Torrent Info: After She Wakes (2019) [720p] [YTS] [YIFY]
View Torrent Info: Mob Town (2019) [720p] [YTS] [YIFY]
View Torrent Info: The Final Level: Escaping Rancala (2019) [720p] [YTS] [YIFY]
View Torrent Info: Take Home Pay (2019) [720p] [YTS] [YIFY]
View Torrent Info: Rampage (2009) [720p] [YTS] [YIFY]
Hot torrents
TV Torrents
View Torrent Info: Supergirl.S05E09.HDTV.x264-SVA[eztv]
View Torrent Info: Batwoman.S01E09.HDTV.x264-SVA[eztv]
View Torrent Info: The.Mandalorian.S01E06.WEB.x264-PHOENiX[eztv]
View Torrent Info: The.Flash.2014.S06E09.HDTV.x264-PHOENiX[eztv]
View Torrent Info: The.Blacklist.S07E10.HDTV.x264-SVA[eztv]
View Torrent Info: SEAL.Team.S03E10.HDTV.x264-SVA[eztv]
View Torrent Info: The.Rookie.S02E10.HDTV.x264-SVA[eztv]
View Torrent Info: Vikings.S06E03.HDTV.x264-SVA[eztv]
View Torrent Info: watchmen.s01e08.web.h264-tbs[eztv]
View Torrent Info: S.W.A.T.2017.S03E10.HDTV.x264-KILLERS[eztv]
ExtraTorrent.ag > Categories > Music torrents > Music Videos torrents


Browse Music torrents

WAR (2019) [MUSIC VIDEOS] 1080p WebHD AVC DDP 5.1 torrent


Download torrent: Download WAR (2019) [MUSIC VIDEOS] 1080p WebHD AVC DDP 5.1 torrent Magnet link Bookmark Torrent: WAR (2019) [MUSIC VIDEOS] 1080p WebHD AVC DDP 5.1 WAR (2019) [MUSIC VIDEOS] 1080p WebHD AVC DDP 5.1 torrent | if not working, try instead: Magnet Link
Info hash: 91D4982734ADA3A65726F9B99A24BC0340185434
Category: Categories > Music torrents > Music Videos torrents
Trackers:
13    View all torrent trackers >
Health:
 seeds: 19 ,  leechers: 10 |  Update >
Total Size: 959.80 MB
Torrent status: Added by trusted uploader Added by trusted uploader Trusted Uploader Site Friend Superman Sun
Uploader: Trusted Uploader Site Friend Superman Sun
Torrent added: 2019-12-02 22:57:21
 

Download WAR (2019) [MUSIC VIDEOS] 1080p WebHD AVC DDP 5.1 torrent if not working, try downloading torrent using Download WAR (2019) [MUSIC VIDEOS] 1080p WebHD AVC DDP 5.1 via Magnet Link




Torrent Description


WAR (2019) [MUSIC VIDEOS] 1080p WebHD AVC DDP 5.1



PLOT :
Khalid, is entrusted with the task of eliminating Kabir, a former soldier turned rogue, as he engages in an epic battle with his mentor who had taught him everything.


MOVIE INFO :

Rating: Not Rated
Genre: Action, Thriller
Directed By: Siddharth Anand
Written By: Siddharth Anand (screenplay), Siddharth Anand (story), Aditya Chopra (story), Shridhar Raghavan (screenplay), Abbas Tyrewala (dialogue)
Starring: Hrithik Roshan, Tiger Shroff, Vaani Kapoor, Ashutosh Rana
Release Date: 02 Oct 2019
Runtime: 154 min
On Disk/Streaming: N/A
Box Office (USA): N/A
Awards: N/A
Studio: N/A


Screenshots :










MEDIA INFO :

Code:


General
Unique ID : 193264911502412178453137558126865113885 (0x916577D09063FD6987F78BB702F7631D)
Complete name : C:\Users\Administrator\Downloads\WAR (2019) [MUSIC VIDEOS] 1080p WebHD AVC DDP 5.1\3 Jai Jai Shivshankar.mkv
Format : Matroska
Format version : Version 4
File size : 299 MiB
Duration : 3 min 58 s
Overall bit rate : 10.5 Mb/s
Encoded date : UTC 2019-11-27 20:22:19
Writing application : mkvmerge v39.0.0 ('In The Waiting Line') 64-bit
Writing library : libebml v1.3.9 + libmatroska v1.5.2

Video
ID : 1
Format : AVC
Format/Info : Advanced Video Codec
Format profile : [email protected]
Format settings : CABAC / 4 Ref Frames
Format settings, CABAC : Yes
Format settings, Reference frames : 4 frames
Codec ID : V_MPEG4/ISO/AVC
Duration : 3 min 58 s
Bit rate mode : Constant
Bit rate : 10 000 kb/s
Width : 1 920 pixels
Height : 816 pixels
Display aspect ratio : 2.35:1
Frame rate mode : Constant
Frame rate : 24.000 FPS
Color space : YUV
Chroma subsampling : 4:2:0
Bit depth : 8 bits
Scan type : Progressive
Bits/(Pixel*Frame) : 0.266
Stream size : 281 MiB (94%)
Title : By-DusIcTv
Default : Yes
Forced : No
Color range : Limited
Color primaries : BT.709
Transfer characteristics : BT.709
Matrix coefficients : BT.709

Audio
ID : 2
Format : E-AC-3
Format/Info : Enhanced AC-3
Commercial name : Dolby Digital Plus
Codec ID : A_EAC3
Duration : 3 min 58 s
Bit rate mode : Constant
Bit rate : 640 kb/s
Channel(s) : 6 channels
Channel layout : L R C LFE Ls Rs
Sampling rate : 48.0 kHz
Frame rate : 31.250 FPS (1536 SPF)
Compression mode : Lossy
Stream size : 18.2 MiB (6%)
Title : By-DusIcTv
Language : Hindi
Service kind : Complete Main
Default : Yes
Forced : No

Text
ID : 3
Format : UTF-8
Codec ID : S_TEXT/UTF8
Codec ID/Info : UTF-8 Plain Text
Duration : 3 min 21 s
Bit rate : 47 b/s
Count of elements : 55
Stream size : 1.17 KiB (0%)
Title : By-DusIcTv
Language : English
Default : No
Forced : No





#Symbiotes -> To avoid fakes, ALWAYS check that the torrent was added on ExtraTorrent.ag by Symbiotes

https://extratorrent.ag/



Download WAR (2019) [MUSIC VIDEOS] 1080p WebHD AVC DDP 5.1 torrent


Comments (please add your comment)
No comments



Home - Browse Torrents - Upload Torrent - Stat - Forum - FAQ - Login
ExtraTorrent.ag is in compliance with copyrights
2006-2018 ExtraTorrent.ag

X
Attention! Use a VPN when Accessing Free Content !
Your IP address is - Country:
Your Internet provider Tracks your Activity! Hide your IP ADDRESS with a VPN!
Bonus: Get Lag-Free Streams & No popups with any VPN Purchased !

Download Here