ExtraTorrent.ag - The Largest Bittorent System Login   |    Register
Latest Articles
Most searched
Hot torrents
Movie Torrents
View Torrent Info: Rambo: Last Blood (2019) [720p] [YTS] [YIFY]
View Torrent Info: Ad Astra (2019) [720p] [YTS] [YIFY]
View Torrent Info: Ad Astra (2019) [720p] [YTS] [YIFY]
View Torrent Info: D-Day (2019) [720p] [YTS] [YIFY]
View Torrent Info: A Rainy Day in New York (2019) [720p] [YTS] [YIFY]
View Torrent Info: Out of Liberty (2019) [720p] [YTS] [YIFY]
View Torrent Info: Ring Ring (2019) [720p] [YTS] [YIFY]
View Torrent Info: Rogue Warfare: The Hunt (2019) [720p] [YTS] [YIFY]
View Torrent Info: Badland (2019) [720p] [YTS] [YIFY]
View Torrent Info: This Is Our Home (2019) [720p] [YTS] [YIFY]
Hot torrents
TV Torrents
View Torrent Info: The.Flash.2014.S06E08.HDTV.x264-SVA[eztv]
View Torrent Info: Vikings.S06E02.HDTV.x264-SVA[eztv]
View Torrent Info: Arrow.S08E07.HDTV.x264-SVA[eztv]
View Torrent Info: Vikings.S06E01.HDTV.x264-SVA[eztv]
View Torrent Info: The.Good.Doctor.S03E10.HDTV.x264-SVA[eztv]
View Torrent Info: Supernatural.S15E07.HDTV.x264-SVA[eztv]
View Torrent Info: Legacies.S02E07.HDTV.x264-SVA[eztv]
View Torrent Info: The.Mandalorian.S01E05.WEB.x264-PHOENiX[eztv]
View Torrent Info: SEAL.Team.S03E09.HDTV.x264-KILLERS[eztv]
View Torrent Info: Young.Sheldon.S03E09.HDTV.x264-SVA[eztv]
ExtraTorrent.ag > Categories > Movies torrents > Divx/Xvid torrents


Browse Movies torrents

Bad Boys Web (1995) [che] torrent


Download torrent: Download Bad Boys Web (1995) [che] torrent Magnet link Bookmark Torrent: Bad Boys Web (1995) [che] Bad Boys Web (1995) [che] torrent | if not working, try instead: Magnet Link
Info hash: D0E7274AB2B1C25B241CDA7CF37D9C5C8E811F8C
Category: Categories > Movies torrents > Divx/Xvid torrents
Trackers:
12    View all torrent trackers >
Health:
 seeds: 7 ,  leechers: 2 |  Update >
Torrent language:  
Total Size: 1.40 GB
Torrent status: Added by trusted uploader Added by trusted uploader Trusted Uploader Site Friend Superman Sun
Uploader: Trusted Uploader Site Friend Superman Sun
Torrent added: 2019-11-12 18:06:05
 

Download Bad Boys Web (1995) [che] torrent if not working, try downloading torrent using Download Bad Boys Web (1995) [che] via Magnet Link




Torrent Description

Two hip detectives protect a witness to a murder while investigating a case of stolen heroin from the evidence storage room from their police precinct.



Video
ID : 1
Format : AVC
Format/Info : Advanced Video Codec
Format profile : [email protected]
Format settings : CABAC / 4 Ref Frames
Format settings, CABAC : Yes
Format settings, Reference frames : 4 frames
Codec ID : avc1
Codec ID/Info : Advanced Video Coding
Duration : 1 h 56 min
Bit rate : 1 549 kb/s
Width : 1 280 pixels
Height : 694 pixels
Display aspect ratio : 1.85:1
Frame rate mode : Constant
Frame rate : 29.970 (30000/1001) FPS
Color space : YUV
Chroma subsampling : 4:2:0
Bit depth : 8 bits
Scan type : Progressive
Bits/(Pixel*Frame) : 0.058
Stream size : 1.27 GiB (90%)
Writing library : x264 core 157 r2935 545de2f
Encoding settings : cabac=1 / ref=2 / deblock=1:0:0 / analyse=0x1:0x111 / me=hex / subme=6 / psy=1 / psy_rd=1.00:0.00 / mixed_ref=1 / me_range=16 / chroma_me=1 / trellis=1 / 8x8dct=0 / cqm=0 / deadzone=21,11 / fast_pskip=1 / chroma_qp_offset=-2 / threads=12 / lookahead_threads=2 / sliced_threads=0 / nr=0 / decimate=1 / interlaced=0 / bluray_compat=0 / constrained_intra=0 / bframes=3 / b_pyramid=2 / b_adapt=1 / b_bias=0 / direct=1 / weightb=1 / open_gop=0 / weightp=1 / keyint=300 / keyint_min=30 / scenecut=40 / intra_refresh=0 / rc_lookahead=30 / rc=crf / mbtree=1 / crf=22.0 / qcomp=0.60 / qpmin=0 / qpmax=69 / qpstep=4 / vbv_maxrate=20000 / vbv_bufsize=25000 / crf_max=0.0 / nal_hrd=none / filler=0 / ip_ratio=1.40 / aq=1:1.00
Encoded date : UTC 2019-11-12 05:05:50
Tagged date : UTC 2019-11-12 05:05:50
Color range : Limited
Color primaries : BT.709
Transfer characteristics : BT.709
Matrix coefficients : BT.709
Codec configuration box : avcC



Audio
ID : 2
Format : AAC LC
Format/Info : Advanced Audio Codec Low Complexity
Codec ID : mp4a-40-2
Duration : 1 h 56 min
Bit rate mode : Constant
Bit rate : 161 kb/s
Channel(s) : 2 channels
Channel layout : L R
Sampling rate : 48.0 kHz
Frame rate : 46.875 FPS (1024 SPF)
Compression mode : Lossy
Stream size : 135 MiB (9%)
Title : Stereo
Language : English
Default : Yes
Alternate group : 1
Encoded date : UTC 2019-11-12 05:05:50
Tagged date : UTC 2019-11-12 05:05:50



#CheGuevera -> To avoid fakes, ALWAYS check that the torrent was added on ExtraTorrent.ag by CheGuevera

https://extratorrent.ag/



Download Bad Boys Web (1995) [che] torrent


Comments (please add your comment)
No comments



Home - Browse Torrents - Upload Torrent - Stat - Forum - FAQ - Login
ExtraTorrent.ag is in compliance with copyrights
2006-2018 ExtraTorrent.ag

X
Attention! Use a VPN when Accessing Free Content !
Your IP address is - Country:
Your Internet provider Tracks your Activity! Hide your IP ADDRESS with a VPN!
Bonus: Get Lag-Free Streams & No popups with any VPN Purchased !

Download Here