ExtraTorrent.ag - The Largest Bittorent System Login   |    Register
Latest Articles
Most searched
Hot torrents
Movie Torrents
View Torrent Info: Rambo: Last Blood (2019) [720p] [YTS] [YIFY]
View Torrent Info: Ad Astra (2019) [720p] [YTS] [YIFY]
View Torrent Info: The Report (2019) [720p] [YTS] [YIFY]
View Torrent Info: Out of Liberty (2019) [720p] [YTS] [YIFY]
View Torrent Info: A Rainy Day in New York (2019) [720p] [YTS] [YIFY]
View Torrent Info: Ring Ring (2019) [720p] [YTS] [YIFY]
View Torrent Info: Badland (2019) [720p] [YTS] [YIFY]
View Torrent Info: A Holiday Boyfriend (2019) [720p] [YTS] [YIFY]
View Torrent Info: Rogue Warfare: The Hunt (2019) [720p] [YTS] [YIFY]
View Torrent Info: Automation (2019) [720p] [YTS] [YIFY]
Hot torrents
TV Torrents
View Torrent Info: The.Flash.2014.S06E08.HDTV.x264-SVA[eztv]
View Torrent Info: Vikings.S06E02.HDTV.x264-SVA[eztv]
View Torrent Info: Arrow.S08E07.HDTV.x264-SVA[eztv]
View Torrent Info: Vikings.S06E01.HDTV.x264-SVA[eztv]
View Torrent Info: The.Mandalorian.S01E04.WEB.x264-PHOENiX[eztv]
View Torrent Info: SEAL.Team.S03E09.HDTV.x264-KILLERS[eztv]
View Torrent Info: The.Good.Doctor.S03E10.HDTV.x264-SVA[eztv]
View Torrent Info: The.Rookie.S02E09.HDTV.x264-SVA[eztv]
View Torrent Info: Modern.Family.S11E08.HDTV.x264-SVA[eztv]
View Torrent Info: Batwoman.S01E08.HDTV.x264-SVA[eztv]
ExtraTorrent.ag > Categories > Movies torrents > Divx/Xvid torrents


Browse Movies torrents

18+.The.Unicorn.2019.HDRip.XviD.AC3.With.Sample.LLG torrent


Download torrent: Download 18+.The.Unicorn.2019.HDRip.XviD.AC3.With.Sample.LLG torrent Magnet link Bookmark Torrent: 18+.The.Unicorn.2019.HDRip.XviD.AC3.With.Sample.LLG 18+.The.Unicorn.2019.HDRip.XviD.AC3.With.Sample.LLG torrent | if not working, try instead: Magnet Link
Info hash: 8728782E043EA64F75C4F3726E269D00DB076C85
Category: Categories > Movies torrents > Divx/Xvid torrents
Trackers:
2    View all torrent trackers >
Health:
 seeds: 13 ,  leechers: 4 |  Update >
Torrent language:  
Total Size: 1.10 GB
Torrent status: Added by trusted uploader Added by trusted uploader Trusted Uploader Site Friend Superman Sun
Uploader: Trusted Uploader Site Friend Superman Sun
Torrent added: 2019-11-08 07:06:10
 

Download 18+.The.Unicorn.2019.HDRip.XviD.AC3.With.Sample.LLG torrent if not working, try downloading torrent using Download 18+.The.Unicorn.2019.HDRip.XviD.AC3.With.Sample.LLG via Magnet Link




Torrent Description

Quote:





******************************Thumbnail:**********************




******************************Screenshots:********************

Screenshot 1

Screenshot 2

Screenshot 3

Screenshot 4

Screenshot 5

Screenshot 6

Screenshot 7

Screenshot 8

Screenshot 9

Screenshot 0

**********************************************************
General
18+.The.Unicorn.2019.HDRip.XviD.AC3.With.Sample.LLG.mp4
Format : MPEG-4
Format profile : Base Media
Codec ID : isom (isom/iso2/avc1/mp41)
File size : 995 MiB
Duration : 1 h 29 min
Overall bit rate mode : Variable
Overall bit rate : 1 553 kb/s

Video
ID : 1
Format : AVC
Format/Info : Advanced Video Codec
Format profile : [email protected]
Format settings : CABAC / 1 Ref Frames
Format settings, CABAC : Yes
Format settings, Reference frames : 1 frame
Codec ID : avc1
Codec ID/Info : Advanced Video Coding
Duration : 1 h 29 min
Bit rate mode : Variable
Bit rate : 1 165 kb/s
Maximum bit rate : 3 600 kb/s
Width : 720 pixels
Height : 306 pixels
Display aspect ratio : 2.35:1
Frame rate mode : Constant
Frame rate : 23.976 (23976/1000) FPS
Color space : YUV
Chroma subsampling : 4:2:0
Bit depth : 8 bits
Scan type : Progressive
Bits/(Pixel*Frame) : 0.221
Stream size : 747 MiB (75%)

Audio
ID : 2
Format : AC-3
Format/Info : Audio Coding 3
Commercial name : Dolby Digital
Codec ID : ac-3
Duration : 1 h 29 min
Bit rate mode : Constant
Bit rate : 384 kb/s
Channel(s) : 6 channels
Channel layout : L R C LFE Ls Rs
Sampling rate : 48.0 kHz
Frame rate : 31.250 FPS (1536 SPF)
Compression mode : Lossy
Stream size : 246 MiB (25%)
Title : Surround
Language : English
Service kind : Complete Main
Default : Yes


**********************************************************





#LifeLongg -> To avoid fakes, ALWAYS check that the torrent was added on ExtraTorrent.ag by LifeLongg

https://extratorrent.ag/



Download 18+.The.Unicorn.2019.HDRip.XviD.AC3.With.Sample.LLG torrent


Comments (please add your comment)
No comments



Home - Browse Torrents - Upload Torrent - Stat - Forum - FAQ - Login
ExtraTorrent.ag is in compliance with copyrights
2006-2018 ExtraTorrent.ag

X
Attention! Use a VPN when Accessing Free Content !
Your IP address is - Country:
Your Internet provider Tracks your Activity! Hide your IP ADDRESS with a VPN!
Bonus: Get Lag-Free Streams & No popups with any VPN Purchased !

Download Here