ExtraTorrent.ag - The Largest Bittorent System Login   |    Register
Latest Articles
Most searched
Hot torrents
Movie Torrents
View Torrent Info: The Lion King (2019) [720p] [YTS] [YIFY]
View Torrent Info: The Drone (2019) [720p] [YTS] [YIFY]
View Torrent Info: The Game Changers (2018) [720p] [YTS] [YIFY]
View Torrent Info: Among Thieves (2019) [720p] [YTS] [YIFY]
View Torrent Info: Hitsville: The Making of Motown (2019) [720p] [YTS] [YIFY]
View Torrent Info: 100 Acres of Hell (2019) [720p] [YTS] [YIFY]
View Torrent Info: Pig Hag (2019) [720p] [YTS] [YIFY]
View Torrent Info: Intimacy (2001) [720p] [YTS] [YIFY]
View Torrent Info: Robbery (2018) [720p] [YTS] [YIFY]
View Torrent Info: Princess Emmy (2019) [720p] [YTS] [YIFY]
Hot torrents
TV Torrents
View Torrent Info: Arrow.S08E01.HDTV.x264-SVA[eztv]
View Torrent Info: The.Flash.2014.S06E02.HDTV.x264-SVA[eztv]
View Torrent Info: The.Blacklist.S07E02.HDTV.x264-SVA[eztv]
View Torrent Info: Supergirl.S05E02.HDTV.x264-KILLERS[eztv]
View Torrent Info: modern.family.s11e04.web.h264-tbs[eztv]
View Torrent Info: Batwoman.S01E02.HDTV.x264-SVA[eztv]
View Torrent Info: The.War.Of.The.Worlds.2019.S01E01.HDTV.x264-FiHTV[eztv]
View Torrent Info: FBI.S02E04.HDTV.x264-SVA[eztv]
View Torrent Info: The.Good.Doctor.S03E04.HDTV.x264-SVA[eztv]
View Torrent Info: Chicago.Med.S05E04.HDTV.x264-SVA[eztv]
ExtraTorrent.ag > Categories > Music torrents > DVD torrents


Browse Music torrents

VJ MAGRAO 90s Megamix (DVDRip) [DJ] torrent


Download torrent: Download VJ MAGRAO 90s Megamix (DVDRip) [DJ] torrent Magnet link Bookmark Torrent: VJ MAGRAO 90s Megamix (DVDRip) [DJ] VJ MAGRAO 90s Megamix (DVDRip) [DJ] torrent | if not working, try instead: Magnet Link
Info hash: 8CE11BDC78F64CD4DBAB3DEA6AE7660B0273E66F
Category: Categories > Music torrents > DVD torrents
Trackers:
17    View all torrent trackers >
Health:
 seeds: 8 ,  leechers: 5 |  Update >
Torrent language:  
Total Size: 1.40 GB
Torrent status: Added by trusted uploader Added by trusted uploader Trusted Uploader Site Friend Superman Sun
Uploader: Trusted Uploader Site Friend Superman Sun
Torrent added: 2019-08-12 16:34:33
 

Download VJ MAGRAO 90s Megamix (DVDRip) [DJ] torrent if not working, try downloading torrent using Download VJ MAGRAO 90s Megamix (DVDRip) [DJ] via Magnet Link




Torrent Description



Artist: Various

Album: VJ MAGRAO 90s Megamix

Released: 2019

Style: Europop

Format: x-vid

Size: 1.36 GB

INFO:
General
Complete name : E:\VJ MAGRAO 90s Megamix (DVDRip)\VJ MAGRAO 90s MEGAMIX(DVDRip).avi
Format : AVI
Format/Info : Audio Video Interleave
File size : 1.36 GiB
Duration : 1 h 34 min
Overall bit rate : 2 064 kb/s
Movie name : Megamix 90's
Director : VJ Magrao
Genre : Music Video
Writing application : FairUse Wizard - http://fairusewizard.com
Original source form/Name : Music Clip

Video
ID : 0
Format : MPEG-4 Visual
Format profile : Advanced [email protected]
Format settings : BVOP1
Format settings, BVOP : 1
Format settings, QPel : No
Format settings, GMC : No warppoints
Format settings, Matrix : Default (MPEG)
Muxing mode : Packed bitstream
Codec ID : XVID
Codec ID/Hint : XviD
Duration : 1 h 34 min
Bit rate : 1 732 kb/s
Width : 624 pixels
Height : 352 pixels
Display aspect ratio : 16:9
Frame rate : 29.970 (30000/1001) FPS
Color space : YUV
Chroma subsampling : 4:2:0
Bit depth : 8 bits
Scan type : Progressive
Compression mode : Lossy
Bits/(Pixel*Frame) : 0.263
Stream size : 1.15 GiB (84%)
Writing library : XviD 1.2.0.dev47 (UTC 2006-11-01)

Audio
ID : 1
Format : AC-3
Format/Info : Audio Coding 3
Commercial name : Dolby Digital
Codec ID : 2000
Duration : 1 h 34 min
Bit rate mode : Constant
Bit rate : 320 kb/s
Channel(s) : 2 channels
Channel layout : L R
Sampling rate : 48.0 kHz
Frame rate : 31.250 FPS (1536 SPF)
Bit depth : 16 bits
Compression mode : Lossy
Stream size : 217 MiB (16%)
Alignment : Split across interleaves
Interleave, duration : 33 ms (1.00 video frame)
Interleave, preload duration : 500 ms
Service kind : Complete Main

Screens:









#djdezzie -> To avoid fakes, ALWAYS check that the torrent was added on ExtraTorrent.ag by djdezzie

https://extratorrent.ag/



Download VJ MAGRAO 90s Megamix (DVDRip) [DJ] torrent


Comments (please add your comment)
No comments



Home - Browse Torrents - Upload Torrent - Stat - Forum - FAQ - Login
ExtraTorrent.ag is in compliance with copyrights
2006-2018 ExtraTorrent.ag

X
Attention! Use a VPN when Accessing Free Content !
Your IP address is - Country:
Your Internet provider Tracks your Activity! Hide your IP ADDRESS with a VPN!
Bonus: Get Lag-Free Streams & No popups with any VPN Purchased !

Download Here