ExtraTorrent.ag - The Largest Bittorent System Login   |    Register
Latest Articles
Most searched
Hot torrents
Movie Torrents
View Torrent Info: The Lion King (2019) [720p] [YTS] [YIFY]
View Torrent Info: The Drone (2019) [720p] [YTS] [YIFY]
View Torrent Info: The Game Changers (2018) [720p] [YTS] [YIFY]
View Torrent Info: Among Thieves (2019) [720p] [YTS] [YIFY]
View Torrent Info: Hitsville: The Making of Motown (2019) [720p] [YTS] [YIFY]
View Torrent Info: 100 Acres of Hell (2019) [720p] [YTS] [YIFY]
View Torrent Info: Pig Hag (2019) [720p] [YTS] [YIFY]
View Torrent Info: Intimacy (2001) [720p] [YTS] [YIFY]
View Torrent Info: Robbery (2018) [720p] [YTS] [YIFY]
View Torrent Info: Princess Emmy (2019) [720p] [YTS] [YIFY]
Hot torrents
TV Torrents
View Torrent Info: Arrow.S08E01.HDTV.x264-SVA[eztv]
View Torrent Info: The.Flash.2014.S06E02.HDTV.x264-SVA[eztv]
View Torrent Info: The.Blacklist.S07E02.HDTV.x264-SVA[eztv]
View Torrent Info: Supergirl.S05E02.HDTV.x264-KILLERS[eztv]
View Torrent Info: modern.family.s11e04.web.h264-tbs[eztv]
View Torrent Info: Batwoman.S01E02.HDTV.x264-SVA[eztv]
View Torrent Info: The.War.Of.The.Worlds.2019.S01E01.HDTV.x264-FiHTV[eztv]
View Torrent Info: FBI.S02E04.HDTV.x264-SVA[eztv]
View Torrent Info: The.Good.Doctor.S03E04.HDTV.x264-SVA[eztv]
View Torrent Info: Chicago.Med.S05E04.HDTV.x264-SVA[eztv]
ExtraTorrent.ag > Categories > Movies torrents > Bollywood/Desi torrents


Browse Movies torrents

Kaashi In Search Of Ganga 2018 x264 720p HD Hindi GOPISAHI torrent


Download torrent: Download Kaashi In Search Of Ganga 2018 x264 720p HD Hindi GOPISAHI torrent Magnet link Bookmark Torrent: Kaashi In Search Of Ganga 2018 x264 720p HD Hindi GOPISAHI Kaashi In Search Of Ganga 2018 x264 720p HD Hindi GOPISAHI torrent | if not working, try instead: Magnet Link
Info hash: 6A23FFDDCB1B0A6D22ECA19F381191C35C70D8AF
Category: Categories > Movies torrents > Bollywood/Desi torrents
Trackers:
34    View all torrent trackers >
Health:
 seeds: 4 ,  leechers: 2 |  Update >
Total Size: 669.90 MB
Torrent status: Added by trusted uploader Added by trusted uploader Trusted Uploader Site Friend Superman Sun
Uploader: Trusted Uploader Site Friend Superman Sun
Torrent added: 2019-07-24 11:31:10
 

Download Kaashi In Search Of Ganga 2018 x264 720p HD Hindi GOPISAHI torrent if not working, try downloading torrent using Download Kaashi In Search Of Ganga 2018 x264 720p HD Hindi GOPISAHI via Magnet Link




Torrent Description


https://www.gopisahi.xyz/



Kaashi In Search Of Ganga 2018 x264 720p HD Hindi GOPISAHI


Format                         : Matroska
Format version                 : Version 4
File size                      : 670 MiB
Duration                       : 1 h 57 min
Overall bit rate               : 797 kb/s
Movie name                     : Kaashi in Search of Ganga 2018 GOPISAHI

Video
Format                         : AVC
Format/Info                    : Advanced Video Codec
Format profile                 : [email protected]
Codec ID                       : V_MPEG4/ISO/AVC
Duration                       : 1 h 57 min
Bit rate                       : 699 kb/s
Width                          : 1 280 pixels
Height                         : 536 pixels
Display aspect ratio           : 2.40:1
Frame rate mode                : Constant
Frame rate                     : 25.000 FPS
Color space                    : YUV
Chroma subsampling             : 4:2:0
Bit depth                      : 8 bits
Scan type                      : Progressive
Bits/(Pixel*Frame)             : 0.041
Stream size                    : 587 MiB (88%)
Title                          : GOPISAHI
Writing library                : x264 core 157 r2935 545de2f

Audio
Format                         : AAC LC
Duration                       : 1 h 57 min
Bit rate                       : 96.0 kb/s
Channel(s)                     : 2 channels
Channel layout                 : L R
Sampling rate                  : 48.0 kHz
Frame rate                     : 46.875 FPS (1024 SPF)
Compression mode               : Lossy
Delay relative to video        : -21 ms
Stream size                    : 80.6 MiB (12%)
Title                          : GOPISAHI
Language                       : Hindi








#PENDUDESI -> To avoid fakes, ALWAYS check that the torrent was added on ExtraTorrent.ag by PENDUDESI

https://extratorrent.ag/



Download Kaashi In Search Of Ganga 2018 x264 720p HD Hindi GOPISAHI torrent


Comments (please add your comment)
No comments



Home - Browse Torrents - Upload Torrent - Stat - Forum - FAQ - Login
ExtraTorrent.ag is in compliance with copyrights
2006-2018 ExtraTorrent.ag

X
Attention! Use a VPN when Accessing Free Content !
Your IP address is - Country:
Your Internet provider Tracks your Activity! Hide your IP ADDRESS with a VPN!
Bonus: Get Lag-Free Streams & No popups with any VPN Purchased !

Download Here