ExtraTorrent.ag - The Largest Bittorent System Login   |    Register
Latest Articles
Most searched
Hot torrents
Movie Torrents
View Torrent Info: Trauma Center (2019) [720p] [YTS] [YIFY]
View Torrent Info: Marriage Story (2019) [720p] [YTS] [YIFY]
View Torrent Info: Judy (2019) [720p] [YTS] [YIFY]
View Torrent Info: Grand Isle (2019) [720p] [YTS] [YIFY]
View Torrent Info: The Great Battle (2018) [720p] [YTS] [YIFY]
View Torrent Info: The Mummy Rebirth (2019) [720p] [YTS] [YIFY]
View Torrent Info: Beyond the Law (2019) [720p] [YTS] [YIFY]
View Torrent Info: D-Day (2019) [720p] [YTS] [YIFY]
View Torrent Info: Hard Night Falling (2019) [720p] [YTS] [YIFY]
View Torrent Info: The God Plant (2018) [720p] [YTS] [YIFY]
Hot torrents
TV Torrents
View Torrent Info: Supergirl.S05E09.HDTV.x264-SVA[eztv]
View Torrent Info: Batwoman.S01E09.HDTV.x264-SVA[eztv]
View Torrent Info: The.Mandalorian.S01E05.WEB.x264-PHOENiX[eztv]
View Torrent Info: The.Flash.2014.S06E09.HDTV.x264-PHOENiX[eztv]
View Torrent Info: The.Rookie.S02E10.HDTV.x264-SVA[eztv]
View Torrent Info: watchmen.s01e08.web.h264-tbs[eztv]
View Torrent Info: Supernatural.S15E07.HDTV.x264-SVA[eztv]
View Torrent Info: his.dark.materials.s01e06.hdtv.x264-mtb[eztv]
View Torrent Info: Legacies.S02E07.HDTV.x264-SVA[eztv]
View Torrent Info: The.Blacklist.S07E09.480p.x264-mSD[eztv]
ExtraTorrent.ag > Categories > TV torrents > HEVC/x265 torrents


Browse TV torrents

Legion S03E04 1080p AMZN WEBrip x265 DDP5.1 D0ct0rLew[SEV] torrent


Download torrent: Download Legion S03E04 1080p AMZN WEBrip x265 DDP5.1 D0ct0rLew[SEV] torrent Magnet link Bookmark Torrent: Legion S03E04 1080p AMZN WEBrip x265 DDP5.1 D0ct0rLew[SEV] Legion S03E04 1080p AMZN WEBrip x265 DDP5.1 D0ct0rLew[SEV] torrent | if not working, try instead: Magnet Link
Info hash: 57B5AF83F3A052BCABBC8CAF83C786223A7C4DBC
Category: Categories > TV torrents > HEVC/x265 torrents
Trackers:
19    View all torrent trackers >
Health:
 seeds: 18 ,  leechers: 2 |  Update >
Torrent language:  
Total Size: 1.70 GB
Torrent status: Added by trusted uploader Added by trusted uploader Trusted Uploader Site Friend Superman Sun
Uploader: Trusted Uploader Site Friend Superman Sun
Torrent added: 2019-07-17 04:14:41
 

Download Legion S03E04 1080p AMZN WEBrip x265 DDP5.1 D0ct0rLew[SEV] torrent if not working, try downloading torrent using Download Legion S03E04 1080p AMZN WEBrip x265 DDP5.1 D0ct0rLew[SEV] via Magnet Link




Torrent Description





Media Information



General
Unique ID : 295757972565157613546581539330336123768 (0xDE80E9DF6CE0A0E826215A7E75026B78)
Complete name : Legion S03E04 1080p AMZN WEBrip x265 DDP5.1 D0ct0rLew[SEV].mkv
Format : Matroska
Format version : Version 4
File size : 1.73 GiB
Duration : 49 min 51 s
Overall bit rate : 4 980 kb/s
Encoded date : UTC 2019-07-17 00:49:29
Writing application : mkvmerge v29.0.0 ('Like It Or Not') 64-bit
Writing library : libebml v1.3.6 + libmatroska v1.4.9

Video
ID : 2
Format : HEVC
Format/Info : High Efficiency Video Coding
Format profile : Main [email protected]@Main
Codec ID : V_MPEGH/ISO/HEVC
Duration : 49 min 50 s
Bit rate : 4 338 kb/s
Width : 1 920 pixels
Height : 1 080 pixels
Display aspect ratio : 16:9
Frame rate mode : Constant
Frame rate : 23.976 (24000/1001) FPS
Color space : YUV
Chroma subsampling : 4:2:0
Bit depth : 10 bits
Bits/(Pixel*Frame) : 0.087
Stream size : 1.51 GiB (87%)
Writing library : x265 3.0_Au+32-a46ded2c1411:[Windows][MSVC 1921][64 bit] 10bit
Encoding settings : cpuid=1111039 / frame-threads=3 / numa-pools=8 / wpp / no-pmode / no-pme / no-psnr / no-ssim / log-level=2 / input-csp=1 / input-res=1920x1080 / interlace=0 / total-frames=71712 / level-idc=0 / high-tier=1 / uhd-bd=0 / ref=4 / no-allow-non-conformance / no-repeat-headers / annexb / no-aud / no-hrd / info / hash=0 / no-temporal-layers / open-gop / min-keyint=23 / keyint=250 / gop-lookahead=0 / bframes=8 / b-adapt=2 / b-pyramid / bframe-bias=0 / rc-lookahead=90 / lookahead-slices=4 / scenecut=40 / radl=0 / no-splice / no-intra-refresh / ctu=64 / min-cu-size=8 / rect / no-amp / max-tu-size=32 / tu-inter-depth=3 / tu-intra-depth=3 / limit-tu=0 / rdoq-level=2 / dynamic-rd=0.00 / no-ssim-rd / signhide / no-tskip / nr-intra=0 / nr-inter=0 / no-constrained-intra / no-strong-intra-smoothing / max-merge=3 / limit-refs=1 / limit-modes / me=3 / subme=7 / merange=92 / temporal-mvp / weightp / no-weightb / no-analyze-src-pics / deblock=0:0 / sao / no-sao-non-deblock / rd=4 / early-skip / rskip / no-fast-intra / no-tskip-fast / no-cu-lossless / b-intra / no-splitrd-skip / rdpenalty=0 / psy-rd=1.20 / psy-rdoq=1.00 / no-rd-refine / no-lossless / cbqpoffs=0 / crqpoffs=0 / rc=crf / crf=19.1 / qcomp=0.60 / qpstep=4 / stats-write=0 / stats-read=0 / ipratio=1.40 / pbratio=1.30 / aq-mode=3 / aq-strength=1.00 / cutree / zone-count=0 / no-strict-cbr / qg-size=32 / no-rc-grain / qpmax=69 / qpmin=0 / no-const-vbv / sar=0 / overscan=0 / videoformat=5 / range=0 / colorprim=2 / transfer=2 / colormatrix=2 / chromaloc=0 / display-window=0cll=0,0 / min-luma=0 / max-luma=1023 / log2-max-poc-lsb=8 / vui-timing-info / vui-hrd-info / slices=1 / no-opt-qp-pps / no-opt-ref-list-length-pps / no-multi-pass-opt-rps / scenecut-bias=0.05 / no-opt-cu-delta-qp / no-aq-motion / no-hdr / no-hdr-opt / no-dhdr10-opt / no-idr-recovery-sei / analysis-reuse-level=5 / scale-factor=0 / refine-intra=0 / refine-inter=0 / refine-mv=0 / refine-ctu-distortion=0 / no-limit-sao / ctu-info=0 / no-lowpass-dct / refine-analysis-type=0 / copy-pic=1 / max-ausize-factor=1.0 / no-dynamic-refine / no-single-sei / no-hevc-aq / no-svt / no-field / qp-adaptation-range=1.00
Default : Yes
Forced : No

Audio
ID : 3
Format : E-AC-3
Format/Info : Enhanced AC-3
Commercial name : Dolby Digital Plus
Codec ID : A_EAC3
Duration : 49 min 50 s
Bit rate mode : Constant
Bit rate : 640 kb/s
Channel(s) : 6 channels
Channel layout : L R C LFE Ls Rs
Sampling rate : 48.0 kHz
Frame rate : 31.250 FPS (1536 SPF)
Compression mode : Lossy
Delay relative to video : 30 ms
Stream size : 228 MiB (13%)
Language : English
Service kind : Complete Main
Default : Yes
Forced : No

Text
ID : 1
Format : UTF-8
Codec ID : S_TEXT/UTF8
Codec ID/Info : UTF-8 Plain Text
Duration : 49 min 39 s
Bit rate : 48 b/s
Count of elements : 763
Stream size : 17.7 KiB (0%)
Language : English
Default : Yes
Forced : No

We have no issue with individuals posting or re-uploading our torrents on a platform we aren't on. However, if this is something you'd like to do, please do so in a 'as-is' format. We ask that you do not create a new torrent, include all descriptions you see above including the SEV logo, tags, notes and screenshots.
If you'd like to become a permanent poster on a website we don't post to, feel free to get in contact with a Sublime Encoded Video member.

We are recruiting/training new members for SEV & seedbox providers as well as people to help out with subtitles.
As you already know, we deliver quality, so you know the standard.
If you're interested, feel free to contact any of the team members.



#D0ct0rLew -> To avoid fakes, ALWAYS check that the torrent was added on ExtraTorrent.ag by D0ct0rLew

https://extratorrent.ag/



Download Legion S03E04 1080p AMZN WEBrip x265 DDP5.1 D0ct0rLew[SEV] torrent


Comments (please add your comment)
No comments



Home - Browse Torrents - Upload Torrent - Stat - Forum - FAQ - Login
ExtraTorrent.ag is in compliance with copyrights
2006-2018 ExtraTorrent.ag

X
Attention! Use a VPN when Accessing Free Content !
Your IP address is - Country:
Your Internet provider Tracks your Activity! Hide your IP ADDRESS with a VPN!
Bonus: Get Lag-Free Streams & No popups with any VPN Purchased !

Download Here