ExtraTorrent.ag - The Largest Bittorent System Login   |    Register
Latest Articles
Most searched
Hot torrents
Movie Torrents
View Torrent Info: Kill Chain (2019) [720p] [YTS] [YIFY]
View Torrent Info: The Room (2019) [720p] [YTS] [YIFY]
View Torrent Info: Sweetheart (2019) [720p] [YTS] [YIFY]
View Torrent Info: Eli (2019) [720p] [YTS] [YIFY]
View Torrent Info: William (2019) [720p] [YTS] [YIFY]
View Torrent Info: The Drone (2019) [720p] [YTS] [YIFY]
View Torrent Info: The Game Changers (2018) [720p] [YTS] [YIFY]
View Torrent Info: Birds of a Feather (2019) [720p] [YTS] [YIFY]
View Torrent Info: The Village in the Woods (2019) [720p] [YTS] [YIFY]
View Torrent Info: The Laundromat (2019) [720p] [YTS] [YIFY]
Hot torrents
TV Torrents
View Torrent Info: The.Blacklist.S07E03.HDTV.x264-SVA[eztv]
View Torrent Info: Arrow.S08E01.HDTV.x264-SVA[eztv]
View Torrent Info: The.Flash.2014.S06E02.HDTV.x264-SVA[eztv]
View Torrent Info: Supergirl.S05E02.HDTV.x264-KILLERS[eztv]
View Torrent Info: Batwoman.S01E02.HDTV.x264-SVA[eztv]
View Torrent Info: The.War.Of.The.Worlds.2019.S01E01.HDTV.x264-FiHTV[eztv]
View Torrent Info: FBI.S02E04.HDTV.x264-SVA[eztv]
View Torrent Info: The.Good.Doctor.S03E04.HDTV.x264-SVA[eztv]
View Torrent Info: Titans.2018.S02E07.HDTV.x264-MiKEPANTS[eztv]
View Torrent Info: Greys.Anatomy.S16E04.HDTV.x264-SVA[eztv]
ExtraTorrent.ag > Categories > Movies torrents > Dubbed /Dual Audio torrents


Browse Movies torrents

Golden Slumber 2018 x264 720p Esub BluRay Dual Audio English Hindi GOPISAHI torrent


Download torrent: Download Golden Slumber 2018 x264 720p Esub BluRay Dual Audio English Hindi GOPISAHI torrent Magnet link Bookmark Torrent: Golden Slumber 2018 x264 720p Esub BluRay Dual Audio English Hindi GOPISAHI Golden Slumber 2018 x264 720p Esub BluRay Dual Audio English Hindi GOPISAHI torrent | if not working, try instead: Magnet Link
Info hash: 8C7F4C45017C9CA2BBD19482E4965FF2AED5F6D9
Category: Categories > Movies torrents > Dubbed /Dual Audio torrents
Trackers:
68    View all torrent trackers >
Health:
 seeds: 0 ,  leechers: 0 |  Update >
Torrent language:  
Total Size: 850.80 MB
Torrent status: Added by trusted uploader Added by trusted uploader Trusted Uploader Site Friend Superman Sun
Uploader: Trusted Uploader Site Friend Superman Sun
Torrent added: 2019-07-12 11:54:21
 

Download Golden Slumber 2018 x264 720p Esub BluRay Dual Audio English Hindi GOPISAHI torrent if not working, try downloading torrent using Download Golden Slumber 2018 x264 720p Esub BluRay Dual Audio English Hindi GOPISAHI via Magnet Link




Torrent Description





Golden Slumber 2018 x264 720p Esub BluRay Dual Audio English Hindi GOPISAHI


Format : Matroska

Format version : Version 4

File size : 851 MiB

Duration : 1 h 48 min

Overall bit rate : 1 095 kb/s

Movie name : Golden Slumber 2018 GOPISAHI


Video

ID : 1

Format : AVC

Format/Info : Advanced Video Codec

Format profile : [email protected]

Format settings : CABAC / 16 Ref Frames

Format settings, CABAC : Yes

Format settings, Reference fra : 16 frames

Codec ID : V_MPEG4/ISO/AVC

Duration : 1 h 48 min

Bit rate : 899 kb/s

Width : 1 280 pixels

Height : 544 pixels

Display aspect ratio : 2.35:1

Frame rate mode : Constant

Frame rate : 23.976 (24000/1001) FPS

Color space : YUV

Chroma subsampling : 4:2:0

Bit depth : 8 bits

Scan type : Progressive

Bits/(Pixel*Frame) : 0.054

Stream size : 699 MiB (82%)

Title : GOPISAHI

Writing library : x264 core 157 r2935 545de2f


Audio #1

Format : AAC LC

Duration : 1 h 48 min

Bit rate : 96.0 kb/s

Channel(s) : 2 channels

Channel layout : L R

Sampling rate : 48.0 kHz

Frame rate : 46.875 FPS (1024 SPF)

Compression mode : Lossy

Delay relative to video : -21 ms

Stream size : 74.9 MiB (9%)

Title : GOPISAHI

Language : Hindi


Audio #2

Format : AAC LC

Duration : 1 h 48 min

Bit rate : 96.0 kb/s

Channel(s) : 2 channels

Channel layout : L R

Sampling rate : 48.0 kHz

Frame rate : 46.875 FPS (1024 SPF)

Compression mode : Lossy

Delay relative to video : -21 ms

Stream size : 74.9 MiB (9%)

Title : GOPISAHI

Language : Korean


Text

Language : English








#PENDUDESI -> To avoid fakes, ALWAYS check that the torrent was added on ExtraTorrent.ag by PENDUDESI

https://extratorrent.ag/



Download Golden Slumber 2018 x264 720p Esub BluRay Dual Audio English Hindi GOPISAHI torrent


Comments (please add your comment)
No comments



Home - Browse Torrents - Upload Torrent - Stat - Forum - FAQ - Login
ExtraTorrent.ag is in compliance with copyrights
2006-2018 ExtraTorrent.ag

X
Attention! Use a VPN when Accessing Free Content !
Your IP address is - Country:
Your Internet provider Tracks your Activity! Hide your IP ADDRESS with a VPN!
Bonus: Get Lag-Free Streams & No popups with any VPN Purchased !

Download Here