ExtraTorrent.ag - The Largest Bittorent System Login   |    Register
Latest Articles
Most searched
Hot torrents
Movie Torrents
View Torrent Info: Spider-Man: Far from Home (2019) [720p] [YTS] [YIFY]
View Torrent Info: Child's Play (2019) [720p] [YTS] [YIFY]
View Torrent Info: Can You Keep a Secret? (2019) [720p] [YTS] [YIFY]
View Torrent Info: Anna (2019) [720p] [YTS] [YIFY]
View Torrent Info: Haunt (2019) [720p] [YTS] [YIFY]
View Torrent Info: Anna (2019) [720p] [YTS] [YIFY]
View Torrent Info: Artik (2019) [720p] [YTS] [YIFY]
View Torrent Info: Penguins (2019) [720p] [YTS] [YIFY]
View Torrent Info: The Death and Life of John F. Donovan (2018) [720p] [YTS] [YIFY]
View Torrent Info: Behind the Bullet (2019) [720p] [YTS] [YIFY]
Hot torrents
TV Torrents
View Torrent Info: Power.S06E04.WEB.H264-iNSiDiOUS[eztv]
View Torrent Info: Suits.S09E08.HDTV.x264-aAF[eztv]
View Torrent Info: Ballers.S05E04.WEB.H264-iNSiDiOUS[eztv]
View Torrent Info: Keeping.Up.With.the.Kardashians.S17E02.Birthdays.and.Bad.News.Part.2.HDTV.x264-CRiMSON[eztv]
View Torrent Info: Pennyworth.S01E08.WEBRip.x264-TBS[eztv]
View Torrent Info: pearson.s01e09.webrip.x264-tbs[eztv]
View Torrent Info: WWE.Monday.Night.Raw.2019.09.09.HDTV.x264-NWCHD[eztv]
View Torrent Info: Titans.2018.S02E02.WEB.x264-PHOENiX[eztv]
View Torrent Info: Peaky.Blinders.S05E05.HDTV.x264-BRISK[eztv]
View Torrent Info: Fear.the.Walking.Dead.S05E14.WEB.h264-TBS[eztv]
ExtraTorrent.ag > Categories > Adult / Porn torrents > Video torrents


Browse Adult / Porn torrents

LegalPorno.HD.Pack.1-iCMAL torrent


Download torrent: Download LegalPorno.HD.Pack.1-iCMAL torrent Magnet link Bookmark Torrent: LegalPorno.HD.Pack.1-iCMAL LegalPorno.HD.Pack.1-iCMAL torrent | if not working, try instead: Magnet Link
Info hash: A7F02D9240189635ECFDC7B3B70EC2039EFA30BA
Category: Categories > Adult / Porn torrents > Video torrents
Trackers:
1    View all torrent trackers >
Health:
 seeds: 0 ,  leechers: 0 |  Update >
Torrent language:  
Total Size: 61.50 GB
Torrent status: Added by trusted uploader Added by trusted uploader Trusted Uploader Site Friend Superman Sun
Uploader: Trusted Uploader Site Friend Superman Sun
Torrent added: 2019-06-13 13:43:54
 

Download LegalPorno.HD.Pack.1-iCMAL torrent if not working, try downloading torrent using Download LegalPorno.HD.Pack.1-iCMAL via Magnet Link




Torrent Description

LegalPorno.HD.Pack.1-iCMAL







































































Quote:


General
Complete name : C:\Users\Administrator\Downloads\LegalPorno.HD.Pack.1-iCMAL\Videos\Blackbusters Violet Monroe gets 5 BBC, Rough Balls Deep Anal, DAP, Gapes, Creampie and swallow GIO1001.mp4
Format : MPEG-4
Format profile : Base Media
Codec ID : isom (isom/iso2/avc1/mp41)
File size : 4.64 GiB
Duration : 54 min 14 s
Overall bit rate : 12.2 Mb/s
Writing application : Lavf56.40.101
IsTruncated : Yes

Video
ID : 2
Format : AVC
Format/Info : Advanced Video Codec
Format profile : [email protected]
Format settings, CABAC : Yes
Format settings, ReFrames : 4 frames
Codec ID : avc1
Codec ID/Info : Advanced Video Coding
Duration : 54 min 14 s
Bit rate : 12.0 Mb/s
Width : 1 920 pixels
Height : 1 080 pixels
Display aspect ratio : 16:9
Frame rate mode : Constant
Frame rate : 29.970 (30000/1001) FPS
Color space : YUV
Chroma subsampling : 4:2:0
Bit depth : 8 bits
Scan type : Progressive
Bits/(Pixel*Frame) : 0.193
Stream size : 4.53 GiB (98%)
Writing library : x264 core 148 r2643 5c65704
Encoding settings : cabac=1 / ref=3 / deblock=1:0:0 / analyse=0x3:0x113 / me=hex / subme=7 / psy=1 / psy_rd=1.00:0.00 / mixed_ref=1 / me_range=16 / chroma_me=1 / trellis=1 / 8x8dct=1 / cqm=0 / deadzone=21,11 / fast_pskip=1 / chroma_qp_offset=-2 / threads=6 / lookahead_threads=1 / sliced_threads=0 / nr=0 / decimate=1 / interlaced=0 / bluray_compat=0 / constrained_intra=0 / bframes=3 / b_pyramid=2 / b_adapt=1 / b_bias=0 / direct=1 / weightb=1 / open_gop=0 / weightp=2 / keyint=250 / keyint_min=25 / scenecut=40 / intra_refresh=0 / rc_lookahead=40 / rc=abr / mbtree=1 / bitrate=12000 / ratetol=1.0 / qcomp=0.60 / qpmin=0 / qpmax=69 / qpstep=4 / ip_ratio=1.40 / aq=1:1.00

Audio
ID : 1
Format : AAC
Format/Info : Advanced Audio Codec
Format profile : LC
Codec ID : 40
Duration : 54 min 14 s
Duration_LastFrame : -23 ms
Bit rate mode : Constant
Bit rate : 270 kb/s
Channel(s) : 2 channels
Channel positions : Front: L R
Sampling rate : 44.1 kHz
Frame rate : 43.066 FPS (1024 spf)
Compression mode : Lossy
Stream size : 105 MiB (2%)
Default : Yes
Alternate group : 1





#iCMAL -> To avoid fakes, ALWAYS check that the torrent was added on ExtraTorrent.ag by iCMAL

https://extratorrent.ag/



Download LegalPorno.HD.Pack.1-iCMAL torrent


Comments (please add your comment)
No comments



Home - Browse Torrents - Upload Torrent - Stat - Forum - FAQ - Login
ExtraTorrent.ag is in compliance with copyrights
2006-2018 ExtraTorrent.ag

X
Attention! Use a VPN when Accessing Free Content !
Your IP address is - Country:
Your Internet provider Tracks your Activity! Hide your IP ADDRESS with a VPN!
Bonus: Get Lag-Free Streams & No popups with any VPN Purchased !

Download Here