ExtraTorrent.ag - The Largest Bittorent System Login   |    Register
Latest Articles
Most searched
Hot torrents
Movie Torrents
View Torrent Info: Dumbo (2019) [720p] [YTS] [YIFY]
View Torrent Info: Murder Mystery (2019) [720p] [YTS] [YIFY]
View Torrent Info: City of Lies (2018) [720p] [YTS] [YIFY]
View Torrent Info: I Am Mother (2019) [720p] [YTS] [YIFY]
View Torrent Info: Daughter of the Wolf (2019) [720p] [YTS] [YIFY]
View Torrent Info: Plus One (2019) [720p] [YTS] [YIFY]
View Torrent Info: The Aftermath (2019) [720p] [YTS] [YIFY]
View Torrent Info: Blackbear (2019) [720p] [YTS] [YIFY]
View Torrent Info: Norm of the North: King Sized Adventure (2019) [720p] [YTS] [YIFY]
View Torrent Info: Vault (2019) [720p] [YTS] [YIFY]
Hot torrents
TV Torrents
View Torrent Info: Marvels.Agents.of.S.H.I.E.L.D.S06E05.HDTV.x264-SVA[eztv]
View Torrent Info: big.little.lies.s02e01.web.h264-memento[eztv]
View Torrent Info: Elementary.S07E04.HDTV.x264-KILLERS[eztv]
View Torrent Info: Krypton.S02E01.HDTV.x264-SVA[eztv]
View Torrent Info: The.100.S06E06.HDTV.x264-SVA[eztv]
View Torrent Info: iZombie.S05E07.HDTV.x264-SVA[eztv]
View Torrent Info: Last.Week.Tonight.With.John.Oliver.S06E14.HDTV.x264-UAV[eztv]
View Torrent Info: The.Handmaids.Tale.S03E04.480p.x264-mSD[eztv]
View Torrent Info: Wild.Bill.S01E01.HDTV.x264-MTB[eztv]
View Torrent Info: MasterChef.Australia.S11E32.HDTV.x264-FQM[eztv]
ExtraTorrent.ag > Categories > Music torrents > Lossless torrents


Browse Music torrents

Belinda Carlisle - Real 1993 (2013) [Remastered & Expanded Special Edition] Flac torrent


Download torrent: Download Belinda Carlisle - Real 1993 (2013) [Remastered & Expanded Special Edition] Flac torrent Magnet link Bookmark Torrent: Belinda Carlisle - Real 1993 (2013) [Remastered & Expanded Special Edition] Flac Belinda Carlisle - Real 1993 (2013) [Remastered & Expanded Special Edition] Flac torrent | if not working, try instead: Magnet Link
Info hash: C0C67AE8CA65D29BAFAFE5B90B360062C6754435
Category: Categories > Music torrents > Lossless torrents
Trackers:
13    View all torrent trackers >
Health:
 seeds: 9 ,  leechers: 0 |  Update >
Torrent language:  
Total Size: 837.10 MB
Torrent status: Added by trusted uploader Added by trusted uploader Trusted Uploader Site Friend Superman Sun
Uploader: Trusted Uploader Site Friend Superman Sun
Torrent added: 2019-06-12 08:51:12
 

Download Belinda Carlisle - Real 1993 (2013) [Remastered & Expanded Special Edition] Flac torrent if not working, try downloading torrent using Download Belinda Carlisle - Real 1993 (2013) [Remastered & Expanded Special Edition] Flac via Magnet Link




Torrent Description



Quality-Lossless
Release-1993
Duration-01:58:28
File Size-877.7 MB
Genre-Pop
Cover Size-1200px

----------------------------------------------------------------------------------------------
Analyzed: Real (Remastered & Expanded Special Edition) CD 1 / Artist: Belinda Carlisle
----------------------------------------------------------------------------------------------
DR Peak RMS Duration Title [codec]
----------------------------------------------------------------------------------------------
DR9 -0.15 dB -10.63 dB 4:42 01 - Goodbye Day [flac]
DR10 -0.05 dB -11.58 dB 4:16 02 - Big Scary Animal [flac]
DR9 -0.28 dB -12.22 dB 5:17 03 - Too Much Water [flac]
DR9 -0.06 dB -11.43 dB 4:41 04 - Lay Down Your Arms [flac]
DR9 -0.05 dB -12.67 dB 4:58 05 - Where Love Hides [flac]
DR9 -0.41 dB -11.13 dB 5:15 06 - One With You [flac]
DR8 -0.72 dB -10.77 dB 4:29 07 - Wrap My Arms [flac]
DR9 -0.70 dB -12.02 dB 5:33 08 - Tell Me [flac]
DR8 -0.39 dB -10.22 dB 3:29 09 - Windows Of The World [flac]
DR9 -0.06 dB -11.01 dB 4:34 10 - Here Comes My Baby [flac]
DR9 -0.05 dB -11.08 dB 4:09 11 - Lay Down Your Arms (Single Edit) [flac]
DR9 -0.05 dB -11.46 dB 3:35 12 - Heaven Is A Place On Earth (Dyme Brothers 7' Mix) [flac]
DR7 -1.24 dB -11.14 dB 3:04 13 - All God's Children (Edit) [flac]
DR8 -1.86 dB -11.64 dB 3:50 14 - A Prayer For Everyone (Edit) [flac]
DR10 -0.05 dB -11.58 dB 4:58 15 - Heaven Is A Place On Earth (Dyme Brothers 12') [flac]
----------------------------------------------------------------------------------------------
Number of files: 15
Official DR value: DR9

Sampling rate: 44100 Hz
Average bitrate: 1016kbs
Bits per sample: 16 bit

----------------------------------------------------------------------------------------------
Analyzed: Real (Remastered & Expanded Special Edition) CD 2 / Artist: Belinda Carlisle
----------------------------------------------------------------------------------------------
DR Peak RMS Duration Title [codec]
----------------------------------------------------------------------------------------------
DR7 -0.05 dB -9.60 dB 3:14 01 - Whatcha Doin' To Me (Demo) [flac]
DR10 -0.05 dB -12.22 dB 3:14 02 - Don't Cry (Demo) [flac]
DR8 -0.05 dB -10.33 dB 4:37 03 - Change (Demo) [flac]
DR8 -0.65 dB -11.46 dB 4:17 04 - Too Much Water (Demo) [flac]
DR9 -0.05 dB -10.21 dB 4:32 05 - Wrap My Arms (Demo) [flac]
DR8 -0.05 dB -10.19 dB 4:38 06 - Here Comes My Baby (Demo) [flac]
DR7 -1.50 dB -10.68 dB 3:48 07 - Feels Like I've Known You Forever [flac]
DR8 -1.48 dB -11.38 dB 4:20 08 - A Prayer For Everyone [flac]
DR7 -0.50 dB -10.20 dB 3:48 09 - All God's Children [flac]
DR9 -0.05 dB -11.12 dB 5:12 10 - I Feel Free (Live) [flac]
DR9 -0.05 dB -11.71 dB 4:50 11 - Circle In The Sand (Live) [flac]
DR9 -0.05 dB -11.20 dB 4:54 12 - Heaven Is A Place On Earth (Live) [flac]
----------------------------------------------------------------------------------------------
Number of files: 12
Official DR value: DR8

Sampling rate: 44100 Hz
Average bitrate: 944kbs
Bits per sample: 16 bit



#was95was -> To avoid fakes, ALWAYS check that the torrent was added on ExtraTorrent.ag by was95was

https://extratorrent.ag/



Download Belinda Carlisle - Real 1993 (2013) [Remastered & Expanded Special Edition] Flac torrent


Comments (please add your comment)
No comments



Home - Browse Torrents - Upload Torrent - Stat - Forum - FAQ - Login
ExtraTorrent.ag is in compliance with copyrights
2006-2018 ExtraTorrent.ag

X
Attention! Use a VPN when Accessing Free Content !
Your IP address is - Country:
Your Internet provider Tracks your Activity! Hide your IP ADDRESS with a VPN!
Bonus: Get Lag-Free Streams & No popups with any VPN Purchased !

Download Here