ExtraTorrent.ag - The Largest Bittorent System Login   |    Register
Latest Articles
Most searched
Hot torrents
Movie Torrents
View Torrent Info: Men in Black: International (2019) [720p] [YTS] [YIFY]
View Torrent Info: Men in Black: International (2019) [720p] [YTS] [YIFY]
View Torrent Info: Astro Kid (2019) [720p] [YTS] [YIFY]
View Torrent Info: Burn (2019) [720p] [YTS] [YIFY]
View Torrent Info: Hoax (2019) [720p] [YTS] [YIFY]
View Torrent Info: Jacob's Ladder (2019) [720p] [YTS] [YIFY]
View Torrent Info: Tone-Deaf (2019) [720p] [YTS] [YIFY]
View Torrent Info: Color of Night (1994) [720p] [YTS] [YIFY]
View Torrent Info: Magellan (2017) [720p] [YTS] [YIFY]
View Torrent Info: Now Is Good (2012) [720p] [YTS] [YIFY]
Hot torrents
TV Torrents
View Torrent Info: Suits.S09E06.HDTV.x264-aAF[eztv]
View Torrent Info: The.100.S06E13.HDTV.x264-SVA[eztv]
View Torrent Info: Queen.of.the.South.S04E12.HDTV.x264-SVA[eztv]
View Torrent Info: bachelor.in.paradise.s06e06.web.h264-tbs[eztv]
View Torrent Info: bachelor.in.paradise.s06e05.web.h264-tbs[eztv]
View Torrent Info: Animal.Kingdom.US.S04E13.HDTV.x264-SVA[eztv]
View Torrent Info: Pennyworth.S01E06.WEB.x264-PHOENiX[eztv]
View Torrent Info: pearson.s01e06.webrip.x264-tbs[eztv]
View Torrent Info: the.outpost.s02e07.hdtv.x264-lucidtv[eztv]
View Torrent Info: instinct.us.s02e11.hdtv.x264-lucidtv[eztv]
ExtraTorrent.ag > Categories > Music torrents > Lossless torrents


Browse Music torrents

Weezer - Everything Will Be Alright in the End (2014) Flac torrent


Download torrent: Download Weezer - Everything Will Be Alright in the End (2014) Flac torrent Magnet link Bookmark Torrent: Weezer - Everything Will Be Alright in the End (2014) Flac Weezer - Everything Will Be Alright in the End (2014) Flac torrent | if not working, try instead: Magnet Link
Info hash: 266D30FC1527767754BFCE3F90F98F5FD9E736B9
Category: Categories > Music torrents > Lossless torrents
Trackers:
13    View all torrent trackers >
Health:
 seeds: 9 ,  leechers: 0 |  Update >
Torrent language:  
Total Size: 307.00 MB
Torrent status: Added by trusted uploader Added by trusted uploader Trusted Uploader Site Friend Superman Sun
Uploader: Trusted Uploader Site Friend Superman Sun
Torrent added: 2019-06-11 19:26:27
 

Download Weezer - Everything Will Be Alright in the End (2014) Flac torrent if not working, try downloading torrent using Download Weezer - Everything Will Be Alright in the End (2014) Flac via Magnet Link




Torrent Description



Quality-Lossless
Release-2014
Duration-00:42:08
File Size-321.9 MB
Genre-Alternative Rock
Cover Size-1428px

----------------------------------------------------------------------------------------------
Analyzed: Everything Will Be Alright in the End / Artist: Weezer
----------------------------------------------------------------------------------------------
DR Peak RMS Duration Title [codec]
----------------------------------------------------------------------------------------------
DR5 -0.00 dB -6.26 dB 3:20 01 - Ain't Got Nobody [flac]
DR6 -0.00 dB -7.86 dB 3:04 02 - Back to the Shack [flac]
DR5 -0.00 dB -5.99 dB 3:24 03 - Eulogy for a Rock Band [flac]
DR5 -0.00 dB -6.46 dB 2:49 04 - Lonely Girl [flac]
DR4 -0.00 dB -6.30 dB 2:49 05 - I've Had It Up to Here [flac]
DR6 -0.00 dB -8.48 dB 4:08 06 - The British Are Coming [flac]
DR5 -0.00 dB -7.86 dB 4:04 07 - Da Vinci [flac]
DR5 -0.09 dB -7.24 dB 3:12 08 - Go Away [flac]
DR5 -0.00 dB -7.18 dB 3:10 09 - Cleopatra [flac]
DR6 -0.00 dB -7.76 dB 4:30 10 - Foolish Father [flac]
DR7 -0.06 dB -9.34 dB 1:56 11 - I. The Waste Land [flac]
DR5 -0.08 dB -7.84 dB 3:18 12 - II. Anonymous [flac]
DR6 -0.12 dB -10.25 dB 2:16 13 - III. Return to Ithaka [flac]
----------------------------------------------------------------------------------------------
Number of files: 13
Official DR value: DR5

Sampling rate: 44100 Hz
Average bitrate: 1014kbs
Bits per sample: 16 bit



#was95was -> To avoid fakes, ALWAYS check that the torrent was added on ExtraTorrent.ag by was95was

https://extratorrent.ag/



Download Weezer - Everything Will Be Alright in the End (2014) Flac torrent


Comments (please add your comment)
No comments



Home - Browse Torrents - Upload Torrent - Stat - Forum - FAQ - Login
ExtraTorrent.ag is in compliance with copyrights
2006-2018 ExtraTorrent.ag

X
Attention! Use a VPN when Accessing Free Content !
Your IP address is - Country:
Your Internet provider Tracks your Activity! Hide your IP ADDRESS with a VPN!
Bonus: Get Lag-Free Streams & No popups with any VPN Purchased !

Download Here