ExtraTorrent.ag - The Largest Bittorent System Login   |    Register
Latest Articles
Most searched
Hot torrents
Movie Torrents
View Torrent Info: The Room (2019) [720p] [YTS] [YIFY]
View Torrent Info: Kill Chain (2019) [720p] [YTS] [YIFY]
View Torrent Info: Eli (2019) [720p] [YTS] [YIFY]
View Torrent Info: Sweetheart (2019) [720p] [YTS] [YIFY]
View Torrent Info: The Game Changers (2018) [720p] [YTS] [YIFY]
View Torrent Info: The Laundromat (2019) [720p] [YTS] [YIFY]
View Torrent Info: The Drone (2019) [720p] [YTS] [YIFY]
View Torrent Info: William (2019) [720p] [YTS] [YIFY]
View Torrent Info: The Village in the Woods (2019) [720p] [YTS] [YIFY]
View Torrent Info: Among Thieves (2019) [720p] [YTS] [YIFY]
Hot torrents
TV Torrents
View Torrent Info: The.Blacklist.S07E03.HDTV.x264-SVA[eztv]
View Torrent Info: Arrow.S08E01.HDTV.x264-SVA[eztv]
View Torrent Info: The.Flash.2014.S06E02.HDTV.x264-SVA[eztv]
View Torrent Info: Supergirl.S05E02.HDTV.x264-KILLERS[eztv]
View Torrent Info: Batwoman.S01E02.HDTV.x264-SVA[eztv]
View Torrent Info: The.War.Of.The.Worlds.2019.S01E01.HDTV.x264-FiHTV[eztv]
View Torrent Info: FBI.S02E04.HDTV.x264-SVA[eztv]
View Torrent Info: The.Good.Doctor.S03E04.HDTV.x264-SVA[eztv]
View Torrent Info: Titans.2018.S02E07.HDTV.x264-MiKEPANTS[eztv]
View Torrent Info: Greys.Anatomy.S16E04.HDTV.x264-SVA[eztv]
ExtraTorrent.ag > Categories > Movies torrents > Dubbed /Dual Audio torrents


Browse Movies torrents

Mortal Engines 2018 x264 720p Esub BluRay 6.0 Dual Audio English Hindi GOPISAHI torrent


Download torrent: Download Mortal Engines 2018 x264 720p Esub BluRay 6.0 Dual Audio English Hindi GOPISAHI torrent Magnet link Bookmark Torrent: Mortal Engines 2018 x264 720p Esub BluRay 6.0 Dual Audio English Hindi GOPISAHI Mortal Engines 2018 x264 720p Esub BluRay 6.0 Dual Audio English Hindi GOPISAHI torrent | if not working, try instead: Magnet Link
Info hash: 82EA8DDAFE28F3A4A3D186BCE3361BD25AA3A9CB
Category: Categories > Movies torrents > Dubbed /Dual Audio torrents
Trackers:
64    View all torrent trackers >
Health:
 seeds: 0 ,  leechers: 0 |  Update >
Torrent language:  
Total Size: 1.20 GB
Torrent status: Added by trusted uploader Added by trusted uploader Trusted Uploader Site Friend Superman Sun
Uploader: Trusted Uploader Site Friend Superman Sun
Torrent added: 2019-05-14 16:12:02
 

Download Mortal Engines 2018 x264 720p Esub BluRay 6.0 Dual Audio English Hindi GOPISAHI torrent if not working, try downloading torrent using Download Mortal Engines 2018 x264 720p Esub BluRay 6.0 Dual Audio English Hindi GOPISAHI via Magnet Link




Torrent Description

https://www.gopisahi.xyz/



Mortal Engines 2018 x264 720p Esub BluRay 6.0 Dual Audio English Hindi GOPISAHI

Format : Matroska
Format version : Version 4 / Version 2
File size : 1.16 GiB
Duration : 2 h 8 min
Overall bit rate : 1 295 kb/s
Movie name : Mortal Engines 2018 GOPISAHI

Video
ID : 1
Format : AVC
Format/Info : Advanced Video Codec
Format profile : [email protected]
Format settings : CABAC / 16 Ref Frames
Format settings, CABAC : Yes
Format settings, ReFrames : 16 frames
Codec ID : V_MPEG4/ISO/AVC
Duration : 2 h 8 min
Bit rate : 899 kb/s
Width : 1 280 pixels
Height : 536 pixels
Display aspect ratio : 2.40:1
Frame rate mode : Constant
Frame rate : 23.976 (24000/1001) FPS
Color space : YUV
Chroma subsampling : 4:2:0
Bit depth : 8 bits
Scan type : Progressive
Bits/(Pixel*Frame) : 0.055
Stream size : 825 MiB (69%)
Title : GOPISAHI
Writing library : x264 core 157 r2935 545de2f
Encoding settings : cabac=1 / ref=16 / deblock=1:0:0 / analyse=0x3:0x133 / me=umh / subme=10 / psy=1 / psy_rd=1.00:0.00 / mixed_ref=1 / me_range=24 / chroma_me=1 / trellis=2 / 8x8dct=1 / cqm=0 / deadzone=21,11 / fast_pskip=1 / chroma_qp_offset=-2 / threads=12 / lookahead_threads=2 / sliced_threads=0 / nr=0 / decimate=1 / interlaced=0 / bluray_compat=0 / constrained_intra=0 / bframes=8 / b_pyramid=2 / b_adapt=2 / b_bias=0 / direct=3 / weightb=1 / open_gop=0 / weightp=2 / keyint=240 / keyint_min=24 / scenecut=40 / intra_refresh=0 / rc_lookahead=60 / rc=2pass / mbtree=1 / bitrate=899 / ratetol=1.0 / qcomp=0.60 / qpmin=0 / qpmax=69 / qpstep=4 / cplxblur=20.0 / qblur=0.5 / ip_ratio=1.40 / aq=1:1.00
Language : English
Default : Yes
Forced : No
Color range : Limited
Color primaries : BT.709
Transfer characteristics : BT.709
Matrix coefficients : BT.709

Audio #1
ID : 2
Format : AAC
Format/Info : Advanced Audio Codec
Format profile : LC
Codec ID : A_AAC-2
Duration : 2 h 8 min
Bit rate : 192 kb/s
Channel(s) : 6 channels
Channel positions : Front: L C R, Side: C, Back: L R
Sampling rate : 48.0 kHz
Frame rate : 46.875 FPS (1024 SPF)
Compression mode : Lossy
Delay relative to video : -7 ms
Stream size : 176 MiB (15%)
Title : GOPISAHI
Language : Hindi
Default : Yes
Forced : No

Audio #2
ID : 3
Format : AAC
Format/Info : Advanced Audio Codec
Format profile : LC
Codec ID : A_AAC-2
Duration : 2 h 8 min
Bit rate : 192 kb/s
Channel(s) : 6 channels
Channel positions : Front: L C R, Side: C, Back: L R
Sampling rate : 48.0 kHz
Frame rate : 46.875 FPS (1024 SPF)
Compression mode : Lossy
Delay relative to video : -21 ms
Stream size : 176 MiB (15%)
Title : GOPISAHI
Language : English
Default : No
Forced : No

Text
ID : 4
Format : PGS
Muxing mode : zlib
Codec ID : S_HDMV/PGS
Codec ID/Info : Picture based subtitle format used on BDs/HD-DVDs
Duration : 1 h 57 min
Bit rate : 32.9 kb/s
Count of elements : 2986
Stream size : 27.7 MiB (2%)
Title : GOPISAHI
Language : English
Default : Yes
Forced : Yes

Menu
00:00:00.000 : :Chapter 1
00:09:24.397 : :Chapter 2
00:16:13.306 : :Chapter 3
00:24:20.626 : :Chapter 4
00:31:24.591 : :Chapter 5
00:35:53.068 : :Chapter 6
00:41:27.819 : :Chapter 7
00:44:53.816 : :Chapter 8
00:50:16.805 : :Chapter 9
00:54:21.175 : :Chapter 10
01:00:51.398 : :Chapter 11
01:07:12.070 : :Chapter 12
01:11:12.852 : :Chapter 13
01:17:37.736 : :Chapter 14
01:25:25.746 : :Chapter 15
01:33:30.522 : :Chapter 16
01:39:28.546 : :Chapter 17
01:47:58.263 : :Chapter 18
01:52:11.558 : :Chapter 19
01:58:33.523 : :Chapter 20







#PENDUDESI -> To avoid fakes, ALWAYS check that the torrent was added on ExtraTorrent.ag by PENDUDESI

https://extratorrent.ag/



Download Mortal Engines 2018 x264 720p Esub BluRay 6.0 Dual Audio English Hindi GOPISAHI torrent


Comments (please add your comment)
No comments



Home - Browse Torrents - Upload Torrent - Stat - Forum - FAQ - Login
ExtraTorrent.ag is in compliance with copyrights
2006-2018 ExtraTorrent.ag

X
Attention! Use a VPN when Accessing Free Content !
Your IP address is - Country:
Your Internet provider Tracks your Activity! Hide your IP ADDRESS with a VPN!
Bonus: Get Lag-Free Streams & No popups with any VPN Purchased !

Download Here