ExtraTorrent.ag - The Largest Bittorent System Login   |    Register
Latest Articles
Most searched
Hot torrents
Movie Torrents
View Torrent Info: Trauma Center (2019) [720p] [YTS] [YIFY]
View Torrent Info: Marriage Story (2019) [720p] [YTS] [YIFY]
View Torrent Info: Judy (2019) [720p] [YTS] [YIFY]
View Torrent Info: Grand Isle (2019) [720p] [YTS] [YIFY]
View Torrent Info: The Great Battle (2018) [720p] [YTS] [YIFY]
View Torrent Info: The Mummy Rebirth (2019) [720p] [YTS] [YIFY]
View Torrent Info: Beyond the Law (2019) [720p] [YTS] [YIFY]
View Torrent Info: D-Day (2019) [720p] [YTS] [YIFY]
View Torrent Info: Hard Night Falling (2019) [720p] [YTS] [YIFY]
View Torrent Info: The God Plant (2018) [720p] [YTS] [YIFY]
Hot torrents
TV Torrents
View Torrent Info: Supergirl.S05E09.HDTV.x264-SVA[eztv]
View Torrent Info: Batwoman.S01E09.HDTV.x264-SVA[eztv]
View Torrent Info: The.Mandalorian.S01E05.WEB.x264-PHOENiX[eztv]
View Torrent Info: The.Flash.2014.S06E09.HDTV.x264-PHOENiX[eztv]
View Torrent Info: The.Rookie.S02E10.HDTV.x264-SVA[eztv]
View Torrent Info: watchmen.s01e08.web.h264-tbs[eztv]
View Torrent Info: Supernatural.S15E07.HDTV.x264-SVA[eztv]
View Torrent Info: his.dark.materials.s01e06.hdtv.x264-mtb[eztv]
View Torrent Info: Legacies.S02E07.HDTV.x264-SVA[eztv]
View Torrent Info: The.Blacklist.S07E09.480p.x264-mSD[eztv]
ExtraTorrent.ag > Categories > Movies torrents > Bollywood/Desi torrents


Browse Movies torrents

Gully Boy (2019) Hindi 1080p WEB-Rip x264 AC3 DD5.1 - ESUB ~ Ranvijay [Team SSX] torrent


Download torrent: Download Gully Boy (2019) Hindi 1080p WEB-Rip x264 AC3 DD5.1 - ESUB ~ Ranvijay [Team SSX] torrent Magnet link Bookmark Torrent: Gully Boy (2019) Hindi 1080p WEB-Rip x264 AC3 DD5.1 - ESUB ~ Ranvijay [Team SSX] Gully Boy (2019) Hindi 1080p WEB-Rip x264 AC3 DD5.1 - ESUB ~ Ranvijay [Team SSX] torrent | if not working, try instead: Magnet Link
Info hash: DE0968307B16B0382CF215D7F8757551D5B801EB
Category: Categories > Movies torrents > Bollywood/Desi torrents
Trackers:
40    View all torrent trackers >
Health:
 seeds: 5 ,  leechers: 9 |  Update >
Total Size: 3.90 GB
Torrent status: Added by trusted uploader Added by trusted uploader Trusted Uploader Site Friend Superman Sun
Uploader: Trusted Uploader Site Friend Superman Sun
Torrent added: 2019-04-30 18:38:58
 

Download Gully Boy (2019) Hindi 1080p WEB-Rip x264 AC3 DD5.1 - ESUB ~ Ranvijay [Team SSX] torrent if not working, try downloading torrent using Download Gully Boy (2019) Hindi 1080p WEB-Rip x264 AC3 DD5.1 - ESUB ~ Ranvijay [Team SSX] via Magnet Link




Torrent Description







Gully Boy (2019) Hindi 1080p WEB-Rip x264 AC3 DD5.1 - ESUB ~ Ranvijay [Team SSX]

Click Below Link To join Us On Telegram

https://t.me/sharesparkwavesector

Buy RDP Online




Source : NTG
Format : Matroska
Format version : Version 4 / Version 2
File size : 3.92 GiB
Duration : 2 h 34 min
Overall bit rate : 3 641 kb/s
Movie name : Gully Boy (2019) Hindi 1080p WEB-Rip x264 AC3 DD5.1 - ESUB ~ Ranvijay

Video
ID : 1
Format : AVC
Format/Info : Advanced Video Codec
Duration : 2 h 34 min
Bit rate : 3 000 kb/s
Width : 1 920 pixels
Height : 864 pixels
Display aspect ratio : 2.222
Frame rate mode : Constant
Frame rate : 24.000 FPS
Color space : YUV
Chroma subsampling : 4:2:0
Bit depth : 8 bits
Scan type : Progressive
Bits/(Pixel*Frame) : 0.075
Stream size : 3.23 GiB (82%)
Title : ~Ranvijay~

Audio
ID : 2
Format : AC-3
Format/Info : Audio Coding 3
Codec ID : A_AC3
Duration : 2 h 34 min
Bit rate mode : Constant
Bit rate : 640 kb/s
Channel(s) : 6 channels
Channel positions : Front: L C R, Side: L R, LFE
Sampling rate : 48.0 kHz
Frame rate : 31.250 FPS (1536 SPF)
Bit depth : 16 bits
Compression mode : Lossy
Stream size : 706 MiB (18%)
Title : ~Ranvijay~
Language : Hindi
Service kind : Complete Main
Default : Yes
Forced : Yes

Text
ID : 3
Format : UTF-8
Codec ID : S_TEXT/UTF8
Codec ID/Info : UTF-8 Plain Text
Duration : 2 h 26 min
Bit rate : 53 b/s
Count of elements : 2035
Stream size : 57.8 KiB (0%)
Title : ~Ranvijay~
Language : English
Default : Yes
Forced : Yes

Menu
00:00:00.000 : en:Thank you Credits, Studio Logos
00:02:02.000 : en:Scene 2
00:05:26.000 : en:Title Sequence
00:05:34.000 : en:Scene 4
00:21:49.000 : en:Scene 5
00:35:25.000 : en:Scene 6
00:52:05.000 : en:Scene 7
01:08:36.000 : en:Scene 8
01:23:06.000 : en:Scene 9
01:43:23.000 : en:Scene 10
02:05:11.000 : en:Scene 11
02:14:32.000 : en:Scene 12
02:25:25.000 : en:End Credits

















Don't walk as you are king, walk as you don't care who the king is....!!



#TheFighter -> To avoid fakes, ALWAYS check that the torrent was added on ExtraTorrent.ag by TheFighter

https://extratorrent.ag/



Download Gully Boy (2019) Hindi 1080p WEB-Rip x264 AC3 DD5.1 - ESUB ~ Ranvijay [Team SSX] torrent


Comments (please add your comment)
No comments



Home - Browse Torrents - Upload Torrent - Stat - Forum - FAQ - Login
ExtraTorrent.ag is in compliance with copyrights
2006-2018 ExtraTorrent.ag

X
Attention! Use a VPN when Accessing Free Content !
Your IP address is - Country:
Your Internet provider Tracks your Activity! Hide your IP ADDRESS with a VPN!
Bonus: Get Lag-Free Streams & No popups with any VPN Purchased !

Download Here