ExtraTorrent.ag - The Largest Bittorent System Login   |    Register
Latest Articles
Most searched
Hot torrents
Movie Torrents
View Torrent Info: The Game Changers (2018) [720p] [YTS] [YIFY]
View Torrent Info: The Drone (2019) [720p] [YTS] [YIFY]
View Torrent Info: The Laundromat (2019) [720p] [YTS] [YIFY]
View Torrent Info: Sweetheart (2019) [720p] [YTS] [YIFY]
View Torrent Info: Among Thieves (2019) [720p] [YTS] [YIFY]
View Torrent Info: Intimacy (2001) [720p] [YTS] [YIFY]
View Torrent Info: 100 Acres of Hell (2019) [720p] [YTS] [YIFY]
View Torrent Info: Pig Hag (2019) [720p] [YTS] [YIFY]
View Torrent Info: Hitsville: The Making of Motown (2019) [720p] [YTS] [YIFY]
View Torrent Info: Halloween at Aunt Ethel's (2019) [720p] [YTS] [YIFY]
Hot torrents
TV Torrents
View Torrent Info: The.Blacklist.S07E03.HDTV.x264-SVA[eztv]
View Torrent Info: Arrow.S08E01.HDTV.x264-SVA[eztv]
View Torrent Info: The.Flash.2014.S06E02.HDTV.x264-SVA[eztv]
View Torrent Info: Supergirl.S05E02.HDTV.x264-KILLERS[eztv]
View Torrent Info: Batwoman.S01E02.HDTV.x264-SVA[eztv]
View Torrent Info: The.War.Of.The.Worlds.2019.S01E01.HDTV.x264-FiHTV[eztv]
View Torrent Info: FBI.S02E04.HDTV.x264-SVA[eztv]
View Torrent Info: The.Good.Doctor.S03E04.HDTV.x264-SVA[eztv]
View Torrent Info: Titans.2018.S02E07.HDTV.x264-MiKEPANTS[eztv]
View Torrent Info: Greys.Anatomy.S16E04.HDTV.x264-SVA[eztv]
ExtraTorrent.ag > Categories > Movies torrents > Dubbed /Dual Audio torrents


Browse Movies torrents

Operation Red Sea 2018 x264 720p Esub BluRay Dual Audio Hindi Chinese GOPISAHI torrent


Download torrent: Download Operation Red Sea 2018 x264 720p Esub BluRay Dual Audio Hindi Chinese GOPISAHI torrent Magnet link Bookmark Torrent: Operation Red Sea 2018 x264 720p Esub BluRay Dual Audio Hindi Chinese GOPISAHI Operation Red Sea 2018 x264 720p Esub BluRay Dual Audio Hindi Chinese GOPISAHI torrent | if not working, try instead: Magnet Link
Info hash: 0F9A1468C4738480E55A4E56C4413B1C11BE1611
Category: Categories > Movies torrents > Dubbed /Dual Audio torrents
Trackers:
20    View all torrent trackers >
Health:
 seeds: 53 ,  leechers: 24 |  Update >
Total Size: 792.20 MB
Torrent status: Added by trusted uploader Added by trusted uploader Trusted Uploader Site Friend Superman Sun
Uploader: Trusted Uploader Site Friend Superman Sun
Torrent added: 2019-04-30 17:59:09
 

Download Operation Red Sea 2018 x264 720p Esub BluRay Dual Audio Hindi Chinese GOPISAHI torrent if not working, try downloading torrent using Download Operation Red Sea 2018 x264 720p Esub BluRay Dual Audio Hindi Chinese GOPISAHI via Magnet Link




Torrent Description

https://www.gopisahi.xyz/



Format : Matroska

Format version : Version 4 / Version 2

File size : 792 MiB

Duration : 2 h 18 min

Overall bit rate : 798 kb/s

Movie name : Operation Red Sea 2018 GOPISAHI


Video

Format : AVC

Format/Info : Advanced Video Codec

Format profile : [email protected]

Codec ID : V_MPEG4/ISO/AVC

Duration : 2 h 18 min

Bit rate : 599 kb/s

Width : 1 280 pixels

Height : 536 pixels

Display aspect ratio : 2.40:1

Frame rate mode : Constant

Frame rate : 24.000 FPS

Color space : YUV

Chroma subsampling : 4:2:0

Bit depth : 8 bits

Scan type : Progressive

Bits/(Pixel*Frame) : 0.036

Stream size : 594 MiB (75%)

Title : GOPISAHI

Writing library : x264 core 157 r2935 545de2f


Audio #1

Format : AAC

Duration : 2 h 18 min

Bit rate : 96.0 kb/s

Channel(s) : 2 channels

Channel positions : Front: L R

Sampling rate : 48.0 kHz

Frame rate : 46.875 FPS (1024 SPF)

Compression mode : Lossy

Delay relative to video : -21 ms

Stream size : 95.6 MiB (12%)

Title : GOPISAHI

Language : Hindi


Audio #2

Format : AAC

Duration : 2 h 18 min

Bit rate : 96.0 kb/s

Channel(s) : 2 channels

Channel positions : Front: L R

Sampling rate : 48.0 kHz

Frame rate : 46.875 FPS (1024 SPF)

Compression mode : Lossy

Delay relative to video : -12 ms

Stream size : 95.7 MiB (12%)

Title : GOPISAHI

Language : Chinese


Text

Language : English


Menu

00:00:00.000 : :Chapter 1

00:13:45.458 : :Chapter 2

00:21:00.167 : :Chapter 3

00:30:04.792 : :Chapter 4

00:43:06.792 : :Chapter 5

00:50:28.292 : :Chapter 6

01:01:29.708 : :Chapter 7

01:14:04.750 : :Chapter 8

01:21:09.250 : :Chapter 9

01:33:48.542 : :Chapter 10

01:42:31.583 : :Chapter 11

01:52:23.625 : :Chapter 12

02:01:09.042 : :Chapter 13

02:16:05.667 : :Chapter 14




#PENDUDESI -> To avoid fakes, ALWAYS check that the torrent was added on ExtraTorrent.ag by PENDUDESI

https://extratorrent.ag/



Download Operation Red Sea 2018 x264 720p Esub BluRay Dual Audio Hindi Chinese GOPISAHI torrent


Comments (please add your comment)
No comments



Home - Browse Torrents - Upload Torrent - Stat - Forum - FAQ - Login
ExtraTorrent.ag is in compliance with copyrights
2006-2018 ExtraTorrent.ag

X
Attention! Use a VPN when Accessing Free Content !
Your IP address is - Country:
Your Internet provider Tracks your Activity! Hide your IP ADDRESS with a VPN!
Bonus: Get Lag-Free Streams & No popups with any VPN Purchased !

Download Here