ExtraTorrent.ag - The Largest Bittorent System Login   |    Register
Latest Articles
Most searched
Hot torrents
Movie Torrents
View Torrent Info: The Room (2019) [720p] [YTS] [YIFY]
View Torrent Info: Kill Chain (2019) [720p] [YTS] [YIFY]
View Torrent Info: Eli (2019) [720p] [YTS] [YIFY]
View Torrent Info: Sweetheart (2019) [720p] [YTS] [YIFY]
View Torrent Info: The Game Changers (2018) [720p] [YTS] [YIFY]
View Torrent Info: The Laundromat (2019) [720p] [YTS] [YIFY]
View Torrent Info: The Drone (2019) [720p] [YTS] [YIFY]
View Torrent Info: William (2019) [720p] [YTS] [YIFY]
View Torrent Info: The Village in the Woods (2019) [720p] [YTS] [YIFY]
View Torrent Info: Among Thieves (2019) [720p] [YTS] [YIFY]
Hot torrents
TV Torrents
View Torrent Info: The.Blacklist.S07E03.HDTV.x264-SVA[eztv]
View Torrent Info: Arrow.S08E01.HDTV.x264-SVA[eztv]
View Torrent Info: The.Flash.2014.S06E02.HDTV.x264-SVA[eztv]
View Torrent Info: Supergirl.S05E02.HDTV.x264-KILLERS[eztv]
View Torrent Info: Batwoman.S01E02.HDTV.x264-SVA[eztv]
View Torrent Info: The.War.Of.The.Worlds.2019.S01E01.HDTV.x264-FiHTV[eztv]
View Torrent Info: FBI.S02E04.HDTV.x264-SVA[eztv]
View Torrent Info: The.Good.Doctor.S03E04.HDTV.x264-SVA[eztv]
View Torrent Info: Titans.2018.S02E07.HDTV.x264-MiKEPANTS[eztv]
View Torrent Info: Greys.Anatomy.S16E04.HDTV.x264-SVA[eztv]
ExtraTorrent.ag > Categories > Movies torrents > Bollywood/Desi torrents


Browse Movies torrents

Lashtam Pashtam 2018 x264 720p Esub Amazon Hindi GOPISAHI torrent


Download torrent: Download Lashtam Pashtam 2018 x264 720p Esub Amazon Hindi GOPISAHI torrent Magnet link Bookmark Torrent: Lashtam Pashtam 2018 x264 720p Esub Amazon Hindi GOPISAHI Lashtam Pashtam 2018 x264 720p Esub Amazon Hindi GOPISAHI torrent | if not working, try instead: Magnet Link
Info hash: 620AC1F245413DC4B182AA878092FF2003E6D8DF
Category: Categories > Movies torrents > Bollywood/Desi torrents
Trackers:
20    View all torrent trackers >
Health:
 seeds: 0 ,  leechers: 0 |  Update >
Total Size: 694.60 MB
Torrent status: Added by trusted uploader Added by trusted uploader Trusted Uploader Site Friend Superman Sun
Uploader: Trusted Uploader Site Friend Superman Sun
Torrent added: 2019-04-11 16:37:33
 

Download Lashtam Pashtam 2018 x264 720p Esub Amazon Hindi GOPISAHI torrent if not working, try downloading torrent using Download Lashtam Pashtam 2018 x264 720p Esub Amazon Hindi GOPISAHI via Magnet Link




Torrent Description

https://www.gopisahi.pw/



Lashtam Pashtam 2018 x264 720p Esub Amazon Hindi GOPISAHI

Format : Matroska
Format version : Version 4 / Version 2
File size : 695 MiB
Duration : 1 h 48 min
Overall bit rate : 893 kb/s
Movie name : Lashtam Pashtam 2018 GOPISAHI

Video
Format : AVC
Format/Info : Advanced Video Codec
Codec ID : V_MPEG4/ISO/AVC
Duration : 1 h 48 min
Bit rate : 699 kb/s
Width : 1 280 pixels
Height : 542 pixels
Display aspect ratio : 2.35:1
Frame rate mode : Constant
Frame rate : 23.976 (24000/1001) FPS
Color space : YUV
Chroma subsampling : 4:2:0
Bit depth : 8 bits
Scan type : Progressive
Bits/(Pixel*Frame) : 0.042
Stream size : 544 MiB (78%)
Title : GOPISAHI
Writing library : x264 core 157 r2935 545de2f

Audio
Format : AAC
Duration : 1 h 48 min
Bit rate : 192 kb/s
Channel(s) : 6 channels
Channel positions : Front: L C R, Side: C, Back: L R
Sampling rate : 48.0 kHz
Frame rate : 46.875 FPS (1024 SPF)
Compression mode : Lossy
Delay relative to video : -1 ms
Stream size : 149 MiB (21%)
Title : GOPISAHI
Language : Hindi

Text
Language : English







#PENDUDESI -> To avoid fakes, ALWAYS check that the torrent was added on ExtraTorrent.ag by PENDUDESI

https://extratorrent.ag/



Download Lashtam Pashtam 2018 x264 720p Esub Amazon Hindi GOPISAHI torrent


Comments (please add your comment)
1
posted by samantaL (2019-04-11 17:20:29)
samantaL avatar Tired of ordinary p0rn? Sign up here -> meetfuck.ga


2
posted by samantaL (2019-04-11 17:24:35)
samantaL avatar Tired of ordinary p0rn? Sign up here -> meetfuck.ga





Home - Browse Torrents - Upload Torrent - Stat - Forum - FAQ - Login
ExtraTorrent.ag is in compliance with copyrights
2006-2018 ExtraTorrent.ag

X
Attention! Use a VPN when Accessing Free Content !
Your IP address is - Country:
Your Internet provider Tracks your Activity! Hide your IP ADDRESS with a VPN!
Bonus: Get Lag-Free Streams & No popups with any VPN Purchased !

Download Here