ExtraTorrent.ag - The Largest Bittorent System Login   |    Register
Latest Articles
Most searched
Hot torrents
Movie Torrents
View Torrent Info: Annabelle Comes Home (2019) [720p] [YTS] [YIFY]
View Torrent Info: Child's Play (2019) [720p] [YTS] [YIFY]
View Torrent Info: Can You Keep a Secret? (2019) [720p] [YTS] [YIFY]
View Torrent Info: Inside Man: Most Wanted (2019) [720p] [YTS] [YIFY]
View Torrent Info: Tall Girl (2019) [720p] [YTS] [YIFY]
View Torrent Info: Haunt (2019) [720p] [YTS] [YIFY]
View Torrent Info: Mission Panda: Ein tierisches Team (2019) [720p] [YTS] [YIFY]
View Torrent Info: Shanghai Fortress (2019) [720p] [YTS] [YIFY]
View Torrent Info: All the Boys Love Mandy Lane (2006) [720p] [YTS] [YIFY]
View Torrent Info: Riot Girls (2019) [720p] [YTS] [YIFY]
Hot torrents
TV Torrents
View Torrent Info: Suits.S09E09.HDTV.x264-aAF[eztv]
View Torrent Info: American.Horror.Story.S09E01.HDTV.x264-SVA[eztv]
View Torrent Info: Power.S06E04.WEB.H264-iNSiDiOUS[eztv]
View Torrent Info: Pearson.S01E10.WEBRip.x264-TBS[eztv]
View Torrent Info: Americas.Got.Talent.S14E23.WEB.x264-TRUMP[eztv]
View Torrent Info: Bachelor.In.Paradise.S06E13.WEB.x264-TBS[eztv]
View Torrent Info: Titans.2018.S02E02.WEB.x264-PHOENiX[eztv]
View Torrent Info: Ballers.S05E04.WEB.H264-iNSiDiOUS[eztv]
View Torrent Info: MasterChef.US.S10E24.WEB.x264-TBS[eztv]
View Torrent Info: MasterChef.US.S10E25.WEB.x264-TBS[eztv]
ExtraTorrent.ag > Categories > Movies torrents > h.264/x264 torrents


Browse Movies torrents

Dev (2019) Telugu HDRip x264 Mp3 ESub by MovHot torrent


Download torrent: Download Dev (2019) Telugu HDRip x264 Mp3 ESub by MovHot torrent Magnet link Bookmark Torrent: Dev (2019) Telugu HDRip x264 Mp3 ESub by MovHot Dev (2019) Telugu HDRip x264 Mp3 ESub by MovHot torrent | if not working, try instead: Magnet Link
Info hash: EF29F8A628EEF762CC6F49FD80180EF06761094E
Category: Categories > Movies torrents > h.264/x264 torrents
Trackers:
15    View all torrent trackers >
Health:
 seeds: 0 ,  leechers: 0 |  Update >
Total Size: 694.70 MB
Torrent status: Added by trusted uploader Added by trusted uploader Trusted Uploader Site Friend Superman Sun
Uploader: Trusted Uploader Site Friend Superman Sun
Torrent added: 2019-04-10 10:12:20
 

Download Dev (2019) Telugu HDRip x264 Mp3 ESub by MovHot torrent if not working, try downloading torrent using Download Dev (2019) Telugu HDRip x264 Mp3 ESub by MovHot via Magnet Link




Torrent Description



General
Complete name : Dev (2019) Telugu HDRip x264 Mp3 ESub by MovHot.mkv
Format : Matroska
Format version : Version 4
File size : 695 MiB
Duration : 2 h 33 min
Overall bit rate : 634 kb/s
Encoded date : UTC 2019-04-03 11:47:06
Writing application : mkvmerge v6.9.1 ('Blue Panther') 32bit built on Apr 18 2014 18:15:44
Writing library : libebml v1.3.0 + libmatroska v1.4.1

Video
ID : 1
Format : AVC
Format/Info : Advanced Video Codec
Format profile : [email protected]
Format settings : CABAC / 4 Ref Frames
Format settings, CABAC : Yes
Format settings, ReFrames : 4 frames
Codec ID : V_MPEG4/ISO/AVC
Duration : 2 h 33 min
Bit rate : 542 kb/s
Width : 720 pixels
Height : 306 pixels
Display aspect ratio : 2.35:1
Frame rate mode : Constant
Frame rate : 24.000 FPS
Color space : YUV
Chroma subsampling : 4:2:0
Bit depth : 8 bits
Scan type : Progressive
Bits/(Pixel*Frame) : 0.103
Stream size : 576 MiB (83%)
Writing library : x264 core 155 r2901 7d0ff22
Language : Telugu
Default : Yes
Forced : No
Color range : Limited
Color primaries : BT.709
Transfer characteristics : BT.709
Matrix coefficients : BT.709

Audio
ID : 2
Format : MPEG Audio
Format version : Version 1
Format profile : Layer 3
Format settings : Joint stereo / MS Stereo
Codec ID : A_MPEG/L3
Codec ID/Hint : MP3
Duration : 2 h 33 min
Bit rate mode : Constant
Bit rate : 96.0 kb/s
Channel(s) : 2 channels
Sampling rate : 44.1 kHz
Compression mode : Lossy
Delay relative to video : -25 ms
Stream size : 105 MiB (15%)
Language : Telugu
Default : Yes
Forced : No

Text
ID : 3
Format : UTF-8
Codec ID : S_TEXT/UTF8
Codec ID/Info : UTF-8 Plain Text
Language : English
Default : No
Forced : No



#shmasti -> To avoid fakes, ALWAYS check that the torrent was added on ExtraTorrent.ag by shmasti

https://extratorrent.ag/



Download Dev (2019) Telugu HDRip x264 Mp3 ESub by MovHot torrent


Comments (please add your comment)
1
posted by samantaL (2019-04-10 13:48:00)
samantaL avatar Tired of ordinary p0rn? Sign up here -> meetfuck.ga


2
posted by samantaL (2019-04-10 14:54:56)
samantaL avatar Tired of ordinary p0rn? Sign up here -> meetfuck.ga





Home - Browse Torrents - Upload Torrent - Stat - Forum - FAQ - Login
ExtraTorrent.ag is in compliance with copyrights
2006-2018 ExtraTorrent.ag

X
Attention! Use a VPN when Accessing Free Content !
Your IP address is - Country:
Your Internet provider Tracks your Activity! Hide your IP ADDRESS with a VPN!
Bonus: Get Lag-Free Streams & No popups with any VPN Purchased !

Download Here