ExtraTorrent.ag - The Largest Bittorent System Login   |    Register
Latest Articles
Most searched
Hot torrents
Movie Torrents
View Torrent Info: Kill Chain (2019) [720p] [YTS] [YIFY]
View Torrent Info: The Room (2019) [720p] [YTS] [YIFY]
View Torrent Info: Sweetheart (2019) [720p] [YTS] [YIFY]
View Torrent Info: Eli (2019) [720p] [YTS] [YIFY]
View Torrent Info: William (2019) [720p] [YTS] [YIFY]
View Torrent Info: The Drone (2019) [720p] [YTS] [YIFY]
View Torrent Info: The Game Changers (2018) [720p] [YTS] [YIFY]
View Torrent Info: Birds of a Feather (2019) [720p] [YTS] [YIFY]
View Torrent Info: The Village in the Woods (2019) [720p] [YTS] [YIFY]
View Torrent Info: The Laundromat (2019) [720p] [YTS] [YIFY]
Hot torrents
TV Torrents
View Torrent Info: The.Blacklist.S07E03.HDTV.x264-SVA[eztv]
View Torrent Info: Arrow.S08E01.HDTV.x264-SVA[eztv]
View Torrent Info: The.Flash.2014.S06E02.HDTV.x264-SVA[eztv]
View Torrent Info: Supergirl.S05E02.HDTV.x264-KILLERS[eztv]
View Torrent Info: Batwoman.S01E02.HDTV.x264-SVA[eztv]
View Torrent Info: The.War.Of.The.Worlds.2019.S01E01.HDTV.x264-FiHTV[eztv]
View Torrent Info: FBI.S02E04.HDTV.x264-SVA[eztv]
View Torrent Info: The.Good.Doctor.S03E04.HDTV.x264-SVA[eztv]
View Torrent Info: Titans.2018.S02E07.HDTV.x264-MiKEPANTS[eztv]
View Torrent Info: Greys.Anatomy.S16E04.HDTV.x264-SVA[eztv]
ExtraTorrent.ag > Categories > Movies torrents > Bollywood/Desi torrents


Browse Movies torrents

Lupt 2018 x264 720p Esub Netflix Hindi GOPISAHI torrent


Download torrent: Download Lupt 2018 x264 720p Esub Netflix Hindi GOPISAHI torrent Magnet link Bookmark Torrent: Lupt 2018 x264 720p Esub Netflix Hindi GOPISAHI Lupt 2018 x264 720p Esub Netflix Hindi GOPISAHI torrent | if not working, try instead: Magnet Link
Info hash: 797FA0AF8B2C26ED6C56327A238144067CBD3785
Category: Categories > Movies torrents > Bollywood/Desi torrents
Trackers:
19    View all torrent trackers >
Health:
 seeds: 8 ,  leechers: 4 |  Update >
Total Size: 703.20 MB
Torrent status: Added by trusted uploader Added by trusted uploader Trusted Uploader Site Friend Superman Sun
Uploader: Trusted Uploader Site Friend Superman Sun
Torrent added: 2019-04-05 15:12:29
 

Download Lupt 2018 x264 720p Esub Netflix Hindi GOPISAHI torrent if not working, try downloading torrent using Download Lupt 2018 x264 720p Esub Netflix Hindi GOPISAHI via Magnet Link




Torrent Description

https://www.gopisahi.pw/



Lupt 2018 x264 720p Esub Netflix Hindi GOPISAHI

Format : Matroska
Format version : Version 4 / Version 2
File size : 703 MiB
Duration : 1 h 49 min
Overall bit rate : 897 kb/s
Movie name : Lupt 2018 GOPISAHI

Video
Format : AVC
Format/Info : Advanced Video Codec
Codec ID : V_MPEG4/ISO/AVC
Duration : 1 h 49 min
Bit rate : 799 kb/s
Width : 1 280 pixels
Height : 544 pixels
Display aspect ratio : 2.35:1
Frame rate mode : Constant
Frame rate : 24.000 FPS
Color space : YUV
Chroma subsampling : 4:2:0
Bit depth : 8 bits
Scan type : Progressive
Bits/(Pixel*Frame) : 0.048
Stream size : 626 MiB (89%)
Title : GOPISAHI
Writing library : x264 core 157 r2935 545de2f

Audio
Format : AAC
Duration : 1 h 49 min
Bit rate : 96.0 kb/s
Channel(s) : 2 channels
Channel positions : Front: L R
Sampling rate : 48.0 kHz
Frame rate : 46.875 FPS (1024 SPF)
Compression mode : Lossy
Delay relative to video : -21 ms
Stream size : 75.4 MiB (11%)
Title : GOPISAHI
Language : Hindi

Text
Language : English




#PENDUDESI -> To avoid fakes, ALWAYS check that the torrent was added on ExtraTorrent.ag by PENDUDESI

https://extratorrent.ag/



Download Lupt 2018 x264 720p Esub Netflix Hindi GOPISAHI torrent


Comments (please add your comment)
No comments



Home - Browse Torrents - Upload Torrent - Stat - Forum - FAQ - Login
ExtraTorrent.ag is in compliance with copyrights
2006-2018 ExtraTorrent.ag

X
Attention! Use a VPN when Accessing Free Content !
Your IP address is - Country:
Your Internet provider Tracks your Activity! Hide your IP ADDRESS with a VPN!
Bonus: Get Lag-Free Streams & No popups with any VPN Purchased !

Download Here