ExtraTorrent.ag - The Largest Bittorent System Login   |    Register
Latest Articles
Most searched
Hot torrents
Movie Torrents
View Torrent Info: Ad Astra (2019) [720p] [YTS] [YIFY]
View Torrent Info: Ad Astra (2019) [720p] [YTS] [YIFY]
View Torrent Info: Marriage Story (2019) [720p] [YTS] [YIFY]
View Torrent Info: Grand Isle (2019) [720p] [YTS] [YIFY]
View Torrent Info: Trauma Center (2019) [720p] [YTS] [YIFY]
View Torrent Info: Beyond the Law (2019) [720p] [YTS] [YIFY]
View Torrent Info: D-Day (2019) [720p] [YTS] [YIFY]
View Torrent Info: The Mummy Rebirth (2019) [720p] [YTS] [YIFY]
View Torrent Info: Out of Liberty (2019) [720p] [YTS] [YIFY]
View Torrent Info: Game of Thrones: The Last Watch (2019) [720p] [YTS] [YIFY]
Hot torrents
TV Torrents
View Torrent Info: The.Flash.2014.S06E08.HDTV.x264-SVA[eztv]
View Torrent Info: Vikings.S06E02.HDTV.x264-SVA[eztv]
View Torrent Info: The.Mandalorian.S01E05.WEB.x264-PHOENiX[eztv]
View Torrent Info: Arrow.S08E07.HDTV.x264-SVA[eztv]
View Torrent Info: Vikings.S06E01.HDTV.x264-SVA[eztv]
View Torrent Info: The.Good.Doctor.S03E10.HDTV.x264-SVA[eztv]
View Torrent Info: Supernatural.S15E07.HDTV.x264-SVA[eztv]
View Torrent Info: Legacies.S02E07.HDTV.x264-SVA[eztv]
View Torrent Info: SEAL.Team.S03E09.HDTV.x264-KILLERS[eztv]
View Torrent Info: The.Blacklist.S07E09.480p.x264-mSD[eztv]
ExtraTorrent.ag > Categories > Movies torrents > Bollywood/Desi torrents


Browse Movies torrents

Gully Boy (2019) HQ Pre DVDRip Hindi 700Mb x264 torrent


Download torrent: Download Gully Boy (2019) HQ Pre DVDRip Hindi 700Mb x264 torrent Magnet link Bookmark Torrent: Gully Boy (2019) HQ Pre DVDRip Hindi 700Mb x264 Gully Boy (2019) HQ Pre DVDRip Hindi 700Mb x264 torrent | if not working, try instead: Magnet Link
Info hash: A466951E8A7D72895BEFEB49B5F8B19B10C6A854
Category: Categories > Movies torrents > Bollywood/Desi torrents
Trackers:
16    View all torrent trackers >
Health:
 seeds: 20 ,  leechers: 8 |  Update >
Total Size: 691.10 MB
Torrent status: Added by trusted uploader Added by trusted uploader Trusted Uploader Site Friend Superman Sun
Uploader: Trusted Uploader Site Friend Superman Sun
Torrent added: 2019-02-15 05:57:20
 

Download Gully Boy (2019) HQ Pre DVDRip Hindi 700Mb x264 torrent if not working, try downloading torrent using Download Gully Boy (2019) HQ Pre DVDRip Hindi 700Mb x264 via Magnet Link




Torrent Description















Quote:

Format                                   : Matroska
Format version                           : Version 4
File size                                : 691 MiB
Duration                                 : 2 h 30 min
Overall bit rate                         : 640 kb/s
Encoded date                             : UTC 2019-02-15 04:14:59 / UTC
Writing application                      : mkvmerge v28.1.0 ('Morning Child') 64-bit
Writing library                          : libebml v1.3.6 + libmatroska v1.4.9 / Lavf55.12.0

Video
ID                                       : 1
Format                                   : AVC
Format/Info                              : Advanced Video Codec
Format profile                           : [email protected]
Format settings                          : CABAC / 8 Ref Frames
Format settings, CABAC                   : Yes
Format settings, RefFrames               : 8 frames
Codec ID                                 : V_MPEG4/ISO/AVC
Duration                                 : 2 h 30 min
Bit rate                                 : 553 kb/s
Width                                    : 720 pixels
Height                                   : 304 pixels
Display aspect ratio                     : 2.25:1
Original display aspect ratio            : 2.25:1
Frame rate mode                          : Constant
Frame rate                               : 25.000 FPS
Color space                              : YUV
Chroma subsampling                       : 4:2:0
Bit depth                                : 8 bits
Scan type                                : Progressive
Bits/(Pixel*Frame)                       : 0.101
Stream size                              : 603 MiB (87%)
Writing library                          : x264 core 142 r2479 dd79a61
Default                                  : Yes
Forced                                   : No
Color range                              : Limited
Color primaries                          : BT.601 PAL
Transfer characteristics                 : BT.709
Matrix coefficients                      : BT.601

Audio
ID                                       : 2
Format                                   : AAC LC SBR
Format/Info                              : Advanced Audio Codec Low Complexity with Spectral Band Replication
Commercial name                          : HE-AAC
Format settings                          : NBC
Codec ID                                 : A_AAC-5
Duration                                 : 2 h 30 min
Bit rate                                 : 80.0 kb/s
Channel(s)                               : 2 channels
Channel layout                           : L R
Sampling rate                            : 48.0 kHz
Frame rate                               : 23.438 FPS (2048 SPF)
Compression mode                         : Lossy
Delay relative to video                  : -105 ms
Stream size                              : 86.4 MiB (13%)
Language                                 : Hindi
Default                                  : Yes
Forced                                   : No




#worldfree1 -> To avoid fakes, ALWAYS check that the torrent was added on ExtraTorrent.ag by worldfree1

https://extratorrent.ag/



Download Gully Boy (2019) HQ Pre DVDRip Hindi 700Mb x264 torrent


Comments (please add your comment)
No comments



Home - Browse Torrents - Upload Torrent - Stat - Forum - FAQ - Login
ExtraTorrent.ag is in compliance with copyrights
2006-2018 ExtraTorrent.ag

X
Attention! Use a VPN when Accessing Free Content !
Your IP address is - Country:
Your Internet provider Tracks your Activity! Hide your IP ADDRESS with a VPN!
Bonus: Get Lag-Free Streams & No popups with any VPN Purchased !

Download Here