ExtraTorrent.ag - The Largest Bittorent System Login   |    Register
Latest Articles
Most searched
Hot torrents
Movie Torrents
View Torrent Info: Long Shot (2019) [720p] [YTS] [YIFY]
View Torrent Info: Lying and Stealing (2019) [720p] [YTS] [YIFY]
View Torrent Info: The Intruder (2019) [720p] [YTS] [YIFY]
View Torrent Info: Point Blank (2019) [720p] [YTS] [YIFY]
View Torrent Info: Big Brother (2018) [720p] [YTS] [YIFY]
View Torrent Info: iBoy (2017) [720p] [YTS] [YIFY]
View Torrent Info: I Got the Hook Up 2 (2019) [720p] [YTS] [YIFY]
View Torrent Info: Sheep and Wolves: Pig Deal (2019) [720p] [YTS] [YIFY]
View Torrent Info: The Revenant (2009) [720p] [YTS] [YIFY]
View Torrent Info: Saving Zoë (2019) [720p] [YTS] [YIFY]
Hot torrents
TV Torrents
View Torrent Info: the.100.s06e10.web.h264-tbs[eztv]
View Torrent Info: Marvels.Agents.of.S.H.I.E.L.D.S06E09.HDTV.x264-SVA[eztv]
View Torrent Info: The.Handmaids.Tale.S03E09.WEB.x264-PHOENiX[eztv]
View Torrent Info: The.100.S06E10.HDTV.x264-CRAVERS[eztv]
View Torrent Info: big.little.lies.s02e06.web.h264-tbs[eztv]
View Torrent Info: elementary.s07e08.web.x264-tbs[eztv]
View Torrent Info: Pandora.2019.S01E01.HDTV.x264-KILLERS[eztv]
View Torrent Info: Blood.and.Treasure.S01E10.HDTV.x264-KILLERS[eztv]
View Torrent Info: Animal.Kingdom.US.S04E08.HDTV.x264-SVA[eztv]
View Torrent Info: the.rook.s01e03.web.h264-tbs[eztv]
ExtraTorrent.ag > Categories > Movies torrents > Dubbed /Dual Audio torrents


Browse Movies torrents

[MoviesJug.Net] Venom 2018 BluRay Dual Audio [Hindi (Cleaned) + English] 480p ESubs x264 AAC 350MB torrent


Download torrent: Download [MoviesJug.Net] Venom 2018 BluRay Dual Audio [Hindi (Cleaned) + English] 480p ESubs x264 AAC 350MB torrent Magnet link Bookmark Torrent: [MoviesJug.Net] Venom 2018 BluRay Dual Audio [Hindi (Cleaned) + English] 480p ESubs x264 AAC 350MB [MoviesJug.Net] Venom 2018 BluRay Dual Audio [Hindi (Cleaned) + English] 480p ESubs x264 AAC 350MB torrent | if not working, try instead: Magnet Link
Info hash: 437A52F1DEEA0547AB7C9CC3C7E36606173C477E
Category: Categories > Movies torrents > Dubbed /Dual Audio torrents
Trackers:
6    View all torrent trackers >
Health:
 seeds: 60 ,  leechers: 12 |  Update >
Total Size: 396.90 MB
Torrent status: Added by trusted uploader Added by trusted uploader Trusted Uploader Site Friend Superman Sun
Uploader: Trusted Uploader Site Friend Superman Sun
Torrent added: 2018-12-05 22:50:23
 

Download [MoviesJug.Net] Venom 2018 BluRay Dual Audio [Hindi (Cleaned) + English] 480p ESubs x264 AAC 350MB torrent if not working, try downloading torrent using Download [MoviesJug.Net] Venom 2018 BluRay Dual Audio [Hindi (Cleaned) + English] 480p ESubs x264 AAC 350MB via Magnet Link




Torrent Description

VISIT OUR SITE:=>

https://moviesjug.net/









VISIT OUR SITE:=>

https://moviesjug.net/









SCREENSHOTS










MEDIA INFO

:=>




General
Venom 2018 BluRay [MoviesJug.Net] Dual Audio [Hindi English] 480p ESubs x264 AAC 350Mb.mkv
Format : Matroska
Format version : Version 4 / Version 2
File size : 397 MiB
Duration : 1 h 52 min
Overall bit rate : 495 kb/s
Movie name : Downloaded From [Moviesjug.net]

Video
ID : 1
Format : AVC
Format/Info : Advanced Video Codec
Format profile : [email protected]
Format settings : 3 Ref Frames
Format settings, CABAC : No
Format settings, RefFrames : 3 frames
Codec ID : V_MPEG4/ISO/AVC
Duration : 1 h 52 min
Bit rate : 362 kb/s
Width : 720 pixels
Height : 304 pixels
Display aspect ratio : 2.35:1
Frame rate mode : Constant
Frame rate : 23.976 (24000/1001) FPS
Color space : YUV
Chroma subsampling : 4:2:0
Bit depth : 8 bits
Scan type : Progressive
Bits/(Pixel*Frame) : 0.069
Stream size : 291 MiB (73%)
Title : Downloaded From [Moviesjug.net]
Writing library : x264 core 155
Language : English
Default : Yes
Forced : No

Audio #1
ID : 2
Format : AAC
Format/Info : Advanced Audio Codec
Format profile : HE-AAC / LC
Format settings : Explicit
Codec ID : A_AAC-2
Duration : 1 h 52 min
Bit rate : 64.2 kb/s
Channel(s) : 2 channels
Channel positions : Front: L R
Sampling rate : 44.1 kHz / 22.05 kHz
Frame rate : 21.533 FPS (1024 SPF)
Compression mode : Lossy
Stream size : 51.5 MiB (13%)
Title : Downloaded From [Moviesjug.net]
Language : Hindi
Default : Yes
Forced : No

Audio #2
ID : 3
Format : AAC
Format/Info : Advanced Audio Codec
Format profile : HE-AAC / LC
Format settings : Explicit
Codec ID : A_AAC-2
Duration : 1 h 52 min
Bit rate : 66.2 kb/s
Channel(s) : 2 channels
Channel positions : Front: L R
Sampling rate : 44.1 kHz / 22.05 kHz
Frame rate : 21.533 FPS (1024 SPF)
Compression mode : Lossy
Stream size : 52.2 MiB (13%)
Title : Downloaded From [Moviesjug.net]
Language : English
Default : No
Forced : No

Text
ID : 4
Format : UTF-8
Codec ID : S_TEXT/UTF8
Codec ID/Info : UTF-8 Plain Text
Duration : 1 h 34 min
Bit rate : 63 b/s
Count of elements : 1399
Stream size : 44.0 KiB (0%)
Title : Downloaded From [Moviesjug.net]
Language : English
Default : No
Forced : No



#Moviesjug -> To avoid fakes, ALWAYS check that the torrent was added on ExtraTorrent.ag by Moviesjug

https://extratorrent.ag/



Download [MoviesJug.Net] Venom 2018 BluRay Dual Audio [Hindi (Cleaned) + English] 480p ESubs x264 AAC 350MB torrent


Comments (please add your comment)
No comments



Home - Browse Torrents - Upload Torrent - Stat - Forum - FAQ - Login
ExtraTorrent.ag is in compliance with copyrights
2006-2018 ExtraTorrent.ag

X
Attention! Use a VPN when Accessing Free Content !
Your IP address is - Country:
Your Internet provider Tracks your Activity! Hide your IP ADDRESS with a VPN!
Bonus: Get Lag-Free Streams & No popups with any VPN Purchased !

Download Here