ExtraTorrent.ag - The Largest Bittorent System Login   |    Register
Latest Articles
Most searched
Hot torrents
Movie Torrents
View Torrent Info: The Lion King (2019) [720p] [YTS] [YIFY]
View Torrent Info: The Game Changers (2018) [720p] [YTS] [YIFY]
View Torrent Info: The Drone (2019) [720p] [YTS] [YIFY]
View Torrent Info: Among Thieves (2019) [720p] [YTS] [YIFY]
View Torrent Info: Intimacy (2001) [720p] [YTS] [YIFY]
View Torrent Info: Pig Hag (2019) [720p] [YTS] [YIFY]
View Torrent Info: 100 Acres of Hell (2019) [720p] [YTS] [YIFY]
View Torrent Info: Robbery (2018) [720p] [YTS] [YIFY]
View Torrent Info: Hitsville: The Making of Motown (2019) [720p] [YTS] [YIFY]
View Torrent Info: Lucky Day (2019) [720p] [YTS] [YIFY]
Hot torrents
TV Torrents
View Torrent Info: Arrow.S08E01.HDTV.x264-SVA[eztv]
View Torrent Info: The.Flash.2014.S06E02.HDTV.x264-SVA[eztv]
View Torrent Info: The.Blacklist.S07E02.HDTV.x264-SVA[eztv]
View Torrent Info: Supergirl.S05E02.HDTV.x264-KILLERS[eztv]
View Torrent Info: modern.family.s11e04.web.h264-tbs[eztv]
View Torrent Info: Batwoman.S01E02.HDTV.x264-SVA[eztv]
View Torrent Info: The.War.Of.The.Worlds.2019.S01E01.HDTV.x264-FiHTV[eztv]
View Torrent Info: FBI.S02E04.HDTV.x264-SVA[eztv]
View Torrent Info: The.Good.Doctor.S03E04.HDTV.x264-SVA[eztv]
View Torrent Info: Chicago.Med.S05E04.HDTV.x264-SVA[eztv]
ExtraTorrent.ag > Categories > Movies torrents > Divx/Xvid torrents


Browse Movies torrents

The Strangers 2. Prey at Night (2018) avi iTALiAN AC3 BDRip XViD DDNCREW torrent


Download torrent: Download The Strangers 2. Prey at Night (2018) avi iTALiAN AC3 BDRip XViD DDNCREW torrent Magnet link Bookmark Torrent: The Strangers 2. Prey at Night (2018) avi iTALiAN AC3 BDRip XViD DDNCREW The Strangers 2. Prey at Night (2018) avi iTALiAN AC3 BDRip XViD DDNCREW torrent | if not working, try instead: Magnet Link
Info hash: 9FBC1721AFF3A86738FF8C38B1C736609C59A0A0
Category: Categories > Movies torrents > Divx/Xvid torrents
Trackers:
1    View all torrent trackers >
Health:
 seeds: 12 ,  leechers: 5 |  Update >
Total Size: 1.30 GB
Torrent status: Added by trusted uploader Added by trusted uploader Trusted Uploader Site Friend Superman Sun
Uploader: Trusted Uploader Site Friend Superman Sun
Torrent added: 2018-09-13 16:55:08
 

Download The Strangers 2. Prey at Night (2018) avi iTALiAN AC3 BDRip XViD DDNCREW torrent if not working, try downloading torrent using Download The Strangers 2. Prey at Night (2018) avi iTALiAN AC3 BDRip XViD DDNCREW via Magnet Link




Torrent Description

The Strangers 2 Prey at Night (2018).avi BDRip AC3 - ITA


The Strangers 2 - Prey At Night




TRAMA:

The Strangers Prey at Night, il film diretto da Johannes Roberts e basato su fatti realmente accaduti, vede protagonisti Cindy (Christina Hendricks) e suo marito Mike (Martin Henderson) che decidono di fare un viaggio in roulotte con i loro due figli adolescenti, la ribelle Kinsey (Bailee Madison) e Luke (Lewis Pullman).
Quella che inizia come una comune gita familiare si trasforma presto nel loro peggior incubo all’arrivo in un camping abbandonato.
Nel buio della notte, tre psicopatici mascherati, con inspiegabili intenti omicidi, faranno loro visita per spingerli oltre il limite umano.


SCHEDA:

DATA USCITA: 31 maggio 2018
GENERE: Horror, Thriller
ANNO: 2018
REGIA: Johannes Roberts
ATTORI: Christina Hendricks, Bailee Madison, Martin Henderson, Lewis Pullman, Emma Bellomy, Damian Maffei, Lea Enslin
PAESE: USA
DURATA: 85 Min
DISTRIBUZIONE: Notorious Pictures
SCENEGGIATURA: Ben Ketai, Bryan Bertino
FOTOGRAFIA: Ryan Samul
MONTAGGIO: Martin Brinkler
MUSICHE: Adrian Johnston
PRODUZIONE: thefyzz


The Strangers 2. Prey at Night (2018) avi iTALiAN AC3 BDRip XViD DDNCREW.avi

Nome Versione: DDNCREW
Fonte Video/Audio: BluRay
Tracce Video: 720x304 | AVI/XviD @ 1 584 kb/s
Tracce Audio: AC3 iTA 448 KBPS 5.1
Tracce Sottotitoli: / | Genre: Horror


SCREENSHOTS:








GENERAL:

Complete name : The Strangers 2. Prey at Night (2018) avi iTALiAN AC3 BDRip XViD DDNCREW.avi
Format : AVI
Format/Info : Audio Video Interleave
Format profile : OpenDML
Format settings : rec
File size : 1.33 GiB
Duration : 1 h 25 min
Overall bit rate : 2 230 kb/s
Writing application : AVI-Mux GUI 1.17.8.3, Feb 16 201019:42:50

Video
ID : 0
Format : MPEG-4 Visual
Format profile : Advanced [email protected]
Format settings : BVOP1
Format settings, BVOP : 1
Format settings, QPel : No
Format settings, GMC : No warppoints
Format settings, Matrix : Default (H.263)
Codec ID : XVID
Codec ID/Hint : XviD
Duration : 1 h 25 min
Bit rate : 1 584 kb/s
Width : 720 pixels
Height : 304 pixels
Display aspect ratio : 2.35:1
Frame rate : 24.000 FPS
Color space : YUV
Chroma subsampling : 4:2:0
Bit depth : 8 bits
Scan type : Progressive
Compression mode : Lossy
Bits/(Pixel*Frame) : 0.302
Stream size : 969 MiB (71%)
Writing library : XviD 67

Audio
ID : 1
Format : AC-3
Format/Info : Audio Coding 3
Codec ID : 2000
Duration : 1 h 25 min
Bit rate mode : Constant
Bit rate : 640 kb/s
Channel(s) : 6 channels
Channel positions : Front: L C R, Side: L R, LFE
Sampling rate : 48.0 kHz
Frame rate : 31.250 FPS (1536 SPF)
Bit depth : 16 bits
Compression mode : Lossy
Stream size : 391 MiB (29%)
Alignment : Aligned on interleaves
Interleave, duration : 64 ms (1.54 video frames)
Interleave, preload duration : 192 ms
Title : THE STRANGERS_F1_T3_Audio - Italian.dts_.dts_
Service kind : Complete Main



#s7en07 -> To avoid fakes, ALWAYS check that the torrent was added on ExtraTorrent.ag by s7en07

https://extratorrent.ag/



Download The Strangers 2. Prey at Night (2018) avi iTALiAN AC3 BDRip XViD DDNCREW torrent


Comments (please add your comment)
No comments



Home - Browse Torrents - Upload Torrent - Stat - Forum - FAQ - Login
ExtraTorrent.ag is in compliance with copyrights
2006-2018 ExtraTorrent.ag

X
Attention! Use a VPN when Accessing Free Content !
Your IP address is - Country:
Your Internet provider Tracks your Activity! Hide your IP ADDRESS with a VPN!
Bonus: Get Lag-Free Streams & No popups with any VPN Purchased !

Download Here