ExtraTorrent.ag - The Largest Bittorent System Login   |    Register
ExtraTorrent.ag > Categories > TV torrents > HEVC/x265 torrents


Browse TV torrents

Archer (2010) Season 02 S02 (1080p BluRay x265 HEVC 10bit AAC 5.1 Q22 Joy) [UTR] torrent


Download torrent: Download Archer (2010) Season 02 S02 (1080p BluRay x265 HEVC 10bit AAC 5.1 Q22 Joy) [UTR] torrent Magnet link Bookmark Torrent: Archer (2010) Season 02 S02 (1080p BluRay x265 HEVC 10bit AAC 5.1 Q22 Joy) [UTR] Archer (2010) Season 02 S02 (1080p BluRay x265 HEVC 10bit AAC 5.1 Q22 Joy) [UTR] torrent | if not working, try instead: Magnet Link
Info hash: C043F4D5CFCAB46393656917A16CEFE3D60A17C4
Category: Categories > TV torrents > HEVC/x265 torrents
Trackers:
11    View all torrent trackers >
Health:
 seeds: 0 ,  leechers: 0 |  Update >
Torrent language:  
Total Size: 4.50 GB
Torrent status: Added by trusted uploader Added by trusted uploader Trusted Uploader Site Friend Superman Sun
Uploader: Trusted Uploader Site Friend Superman Sun
Torrent added: 2018-09-02 01:10:21

Download Archer (2010) Season 02 S02 (1080p BluRay x265 HEVC 10bit AAC 5.1 Q22 Joy) [UTR] torrent if not working, try downloading torrent using Download Archer (2010) Season 02 S02 (1080p BluRay x265 HEVC 10bit AAC 5.1 Q22 Joy) [UTR] via Magnet Link




Torrent Description








Media Information

Media Information

Code:

General
Format : Matroska
Format version : Version 4 / Version 2
File size : 307 MiB
Duration : 21 min 34 s
Overall bit rate : 1 987 kb/s
Encoded date : UTC 2018-08-31 17:09:38
Writing application : mkvmerge v24.0.0 ('Beyond The Pale') 64-bit
Writing library : libebml v1.3.6 + libmatroska v1.4.9
Writing frontend : StaxRip v1.8.2.0

Video
ID : 1
Format : HEVC
Format/Info : High Efficiency Video Coding
Format profile : Main [email protected]@Main
Codec ID : V_MPEGH/ISO/HEVC
Duration : 21 min 34 s
Bit rate : 1 566 kb/s
Width : 1 920 pixels
Height : 1 080 pixels
Display aspect ratio : 16:9
Frame rate mode : Constant
Frame rate : 23.976 (24000/1001) FPS
Color space : YUV
Chroma subsampling : 4:2:0
Bit depth : 10 bits
Bits/(Pixel*Frame) : 0.031
Stream size : 242 MiB (79%)
Writing library : x265 2.8+19-bcdc610cf5f0:[Windows][MSVC 1914][64 bit] 10bit
Encoding settings : cpuid=1111039 / frame-threads=3 / numa-pools=8 / wpp / no-pmode / no-pme / no-psnr / ssim / log-level=2 / input-csp=1 / input-res=1920x1080 / interlace=0 / total-frames=31038 / level-idc=0 / high-tier=1 / uhd-bd=0 / ref=4 / no-allow-non-conformance / no-repeat-headers / annexb / no-aud / no-hrd / info / hash=0 / no-temporal-layers / open-gop / min-keyint=23 / keyint=250 / gop-lookahead=0 / bframes=4 / b-adapt=2 / b-pyramid / bframe-bias=0 / rc-lookahead=80 / lookahead-slices=4 / scenecut=40 / radl=0 / no-intra-refresh / ctu=64 / min-cu-size=8 / rect / no-amp / max-tu-size=32 / tu-inter-depth=1 / tu-intra-depth=1 / limit-tu=0 / rdoq-level=2 / dynamic-rd=0.00 / ssim-rd / signhide / no-tskip / nr-intra=0 / nr-inter=0 / no-constrained-intra / strong-intra-smoothing / max-merge=3 / limit-refs=3 / limit-modes / me=3 / subme=3 / merange=57 / temporal-mvp / weightp / no-weightb / no-analyze-src-pics / deblock=-2:-2 / sao / sao-non-deblock / rd=4 / early-skip / rskip / no-fast-intra / no-tskip-fast / no-cu-lossless / no-b-intra / no-splitrd-skip / rdpenalty=0 / psy-rd=0.00 / psy-rdoq=1.00 / no-rd-refine / no-lossless / cbqpoffs=0 / crqpoffs=0 / rc=crf / crf=21.5 / qcomp=0.60 / qpstep=4 / stats-write=0 / stats-read=0 / ipratio=1.40 / pbratio=1.30 / aq-mode=3 / aq-strength=1.00 / cutree / zone-count=0 / no-strict-cbr / qg-size=32 / no-rc-grain / qpmax=69 / qpmin=0 / no-const-vbv / sar=0 / overscan=0 / videoformat=5 / range=0 / colorprim=2 / transfer=2 / colormatrix=2 / chromaloc=0 / display-window=0 / max-cll=0,0 / min-luma=0 / max-luma=1023 / log2-max-poc-lsb=8 / vui-timing-info / vui-hrd-info / slices=1 / no-opt-qp-pps / no-opt-ref-list-length-pps / no-multi-pass-opt-rps / scenecut-bias=0.05 / no-opt-cu-delta-qp / no-aq-motion / no-hdr / no-hdr-opt / no-dhdr10-opt / no-idr-recovery-sei / analysis-reuse-level=5 / scale-factor=0 / refine-intra=0 / refine-inter=0 / refine-mv=0 / no-limit-sao / ctu-info=0 / no-lowpass-dct / refine-mv-type=0 / copy-pic=1 / max-ausize-factor=1.0 / no-dynamic-refine / no-single-sei
Default : Yes
Forced : No

Audio
ID : 2
Format : AAC
Format/Info : Advanced Audio Codec
Format profile : LC
Codec ID : A_AAC
Duration : 21 min 34 s
Bit rate : 384 kb/s
Channel(s) : 6 channels
Channel positions : Front: L C R, Side: L R, LFE
Sampling rate : 48.0 kHz
Frame rate : 46.875 FPS (1024 spf)
Compression mode : Lossy
Delay relative to video : 9 ms
Stream size : 59.3 MiB (19%)
Language : English
Default : No
Forced : No

Subtitle #1
ID : 3
Format : VobSub
Muxing mode : zlib
Codec ID : S_VOBSUB
Codec ID/Info : Picture based subtitle format used on DVDs
Duration : 21 min 30 s
Bit rate : 20.3 kb/s
Count of elements : 481
Stream size : 3.12 MiB (1%)
Language : English
Default : No
Forced : No

Subtitle #2
ID : 4
Format : VobSub
Muxing mode : zlib
Codec ID : S_VOBSUB
Codec ID/Info : Picture based subtitle format used on DVDs
Duration : 21 min 27 s
Bit rate : 19.0 kb/s
Count of elements : 451
Stream size : 2.92 MiB (1%)
Language : Spanish
Default : No
Forced : No

Subtitle #3
ID : 5
Format : VobSub
Muxing mode : zlib
Codec ID : S_VOBSUB
Codec ID/Info : Picture based subtitle format used on DVDs
Duration : 21 min 27 s
Bit rate : 18.4 kb/s
Count of elements : 451
Stream size : 2.82 MiB (1%)
Language : French
Default : No
Forced : No

Menu
00:00:00.000 : en:Chapter 1
00:03:16.488 : en:Chapter 2
00:08:06.611 : en:Chapter 3
00:13:32.353 : en:Chapter 4
00:18:58.346 : en:Chapter 5



Source Information

Code:

Release:
Archer.2009.S02.1080p.BluRay.REMUX.AVC.DTS-HD.MA.5.1-EPSiLON (55.7 GB)






#UTRCorp -> To avoid fakes, ALWAYS check that the torrent was added on ExtraTorrent.ag by UTRCorp

https://extratorrent.ag/



Download Archer (2010) Season 02 S02 (1080p BluRay x265 HEVC 10bit AAC 5.1 Q22 Joy) [UTR] torrent


Comments (please add your comment)
No comments



Home - Browse Torrents - Upload Torrent - Stat - Forum - FAQ - Login
ExtraTorrent.ag is in compliance with copyrights
2006-2018 ExtraTorrent.ag

X
Attention! Use a VPN when Accessing Free Content !
Your IP address is - Country:
Your Internet provider Tracks your Activity! Hide your IP ADDRESS with a VPN!
Bonus: Get Lag-Free Streams & No popups with any VPN Purchased !

Download Here