ExtraTorrent.ag - The Largest Bittorent System Login   |    Register
Latest Articles
Most searched
Hot torrents
Movie Torrents
View Torrent Info: Doctor Sleep (2019) [720p] [YTS] [YIFY]
View Torrent Info: Playing with Fire (2019) [720p] [YTS] [YIFY]
View Torrent Info: Last Christmas (2019) [720p] [YTS] [YIFY]
View Torrent Info: Playing with Fire (2019) [720p] [YTS] [YIFY]
View Torrent Info: Doctor Sleep (2019) [720p] [YTS] [YIFY]
View Torrent Info: The Good Liar (2019) [720p] [YTS] [YIFY]
View Torrent Info: Ford v Ferrari (2019) [720p] [YTS] [YIFY]
View Torrent Info: The Good Liar (2019) [720p] [YTS] [YIFY]
View Torrent Info: Step Up China (2019) [720p] [YTS] [YIFY]
View Torrent Info: Rocket Hunter (2020) [720p] [YTS] [YIFY]
Hot torrents
TV Torrents
View Torrent Info: The.Good.Doctor.S03E12.HDTV.x264-SVA[eztv]
View Torrent Info: DCs.Legends.of.Tomorrow.S05E02.HDTV.x264-SVA[eztv]
View Torrent Info: FBI.S02E13.HDTV.x264-SVA[eztv]
View Torrent Info: Manifest.S02E03.HDTV.x264-SVA[eztv]
View Torrent Info: Arrow.S08E09.HDTV.x264-SVA[eztv]
View Torrent Info: FBI.Most.Wanted.S01E03.HDTV.x264-KILLERS[eztv]
View Torrent Info: New.Amsterdam.2018.S02E11.HDTV.x264-SVA[eztv]
View Torrent Info: Supergirl.S05E11.HDTV.x264-SVA[eztv]
View Torrent Info: Greys.Anatomy.S16E10.HDTV.x264-SVA[eztv]
View Torrent Info: Batwoman.S01E11.HDTV.x264-SVA[eztv]
ExtraTorrent.ag > Categories > Movies torrents > Dubbed /Dual Audio torrents


Browse Movies torrents

Robot Overlords 2014 720p BluRay x264 Dual Audio [Hindi - English 2.0] ESub [MW] torrent


Download torrent: Download Robot Overlords 2014 720p BluRay x264 Dual Audio [Hindi - English 2.0] ESub [MW] torrent Magnet link Bookmark Torrent: Robot Overlords 2014 720p BluRay x264 Dual Audio [Hindi - English 2.0] ESub [MW] Robot Overlords 2014 720p BluRay x264 Dual Audio [Hindi - English 2.0] ESub [MW] torrent | if not working, try instead: Magnet Link
Info hash: B6B6626A8D3DFB6D24E9E95EEE09D8540829F778
Category: Categories > Movies torrents > Dubbed /Dual Audio torrents
Trackers:
13    View all torrent trackers >
Health:
 seeds: 264 ,  leechers: 22 |  Update >
Total Size: 779.40 MB
Torrent status: Added by trusted uploader Added by trusted uploader Trusted Uploader Site Friend Superman Sun
Uploader: Trusted Uploader Site Friend Superman Sun
Torrent added: 2018-07-18 08:16:25
 

Download Robot Overlords 2014 720p BluRay x264 Dual Audio [Hindi - English 2.0] ESub [MW] torrent if not working, try downloading torrent using Download Robot Overlords 2014 720p BluRay x264 Dual Audio [Hindi - English 2.0] ESub [MW] via Magnet Link




Torrent Description





General
Format : Matroska
Format version : Version 4 / Version 2
File size : 779 MiB
Duration : 1 h 30 min
Overall bit rate : 1 210 kb/s

Video
ID : 1
Format : AVC
Format/Info : Advanced Video Codec
Format profile : [email protected]
Format settings : CABAC / 4 Ref Frames
Format settings, CABAC : Yes
Format settings, RefFrames : 4 frames
Codec ID : V_MPEG4/ISO/AVC
Duration : 1 h 30 min
Bit rate : 986 kb/s
Width : 1 280 pixels
Height : 536 pixels
Display aspect ratio : 2.40:1
Frame rate mode : Constant
Frame rate : 23.976 (24000/1001) FPS
Original frame rate : 23.976 (23976/1000) FPS
Color space : YUV
Chroma subsampling : 4:2:0
Bit depth : 8 bits
Scan type : Progressive
Bits/(Pixel*Frame) : 0.060
Stream size : 635 MiB (81%)
Writing library : x264 core 123 r2189 35cf912
Default : Yes
Forced : No

Audio #1
ID : 2
Format : AAC
Format/Info : Advanced Audio Codec
Format profile : LC
Codec ID : A_AAC-2
Duration : 1 h 30 min
Bit rate : 128 kb/s
Channel(s) : 2 channels
Channel positions : Front: L R
Sampling rate : 48.0 kHz
Frame rate : 46.875 FPS (1024 SPF)
Compression mode : Lossy
Stream size : 82.5 MiB (11%)
Language : Hindi
Default : Yes
Forced : No

Audio #2
ID : 3
Format : AAC
Format/Info : Advanced Audio Codec
Format profile : LC
Codec ID : A_AAC-2
Duration : 1 h 30 min
Bit rate : 93.7 kb/s
Channel(s) : 2 channels
Channel positions : Front: L R
Sampling rate : 48.0 kHz
Frame rate : 46.875 FPS (1024 SPF)
Compression mode : Lossy
Stream size : 60.4 MiB (8%)
Language : English
Default : No
Forced : No

Text
ID : 4
Format : UTF-8
Codec ID : S_TEXT/UTF8
Codec ID/Info : UTF-8 Plain Text
Duration : 1 h 27 min
Bit rate : 47 b/s
Count of elements : 999
Stream size : 30.3 KiB (0%)
Default : Yes
Forced : No


Click To Enlarge Image










#moviezworldz -> To avoid fakes, ALWAYS check that the torrent was added on ExtraTorrent.ag by moviezworldz

https://extratorrent.ag/



Download Robot Overlords 2014 720p BluRay x264 Dual Audio [Hindi - English 2.0] ESub [MW] torrent


Comments (please add your comment)
No comments



Home - Browse Torrents - Upload Torrent - Stat - Forum - FAQ - Login
ExtraTorrent.ag is in compliance with copyrights
2006-2018 ExtraTorrent.ag

X
Attention! Use a VPN when Accessing Free Content !
Your IP address is - Country:
Your Internet provider Tracks your Activity! Hide your IP ADDRESS with a VPN!
Bonus: Get Lag-Free Streams & No popups with any VPN Purchased !

Download Here