ExtraTorrent.ag - The Largest Bittorent System Login   |    Register
Latest Articles
Most searched
Hot torrents
Movie Torrents
View Torrent Info: The Lion King (2019) [720p] [YTS] [YIFY]
View Torrent Info: Scary Stories to Tell in the Dark (2019) [720p] [YTS] [YIFY]
View Torrent Info: The Game Changers (2018) [720p] [YTS] [YIFY]
View Torrent Info: Among Thieves (2019) [720p] [YTS] [YIFY]
View Torrent Info: The Drone (2019) [720p] [YTS] [YIFY]
View Torrent Info: Robbery (2018) [720p] [YTS] [YIFY]
View Torrent Info: Intimacy (2001) [720p] [YTS] [YIFY]
View Torrent Info: Pig Hag (2019) [720p] [YTS] [YIFY]
View Torrent Info: Lucky Day (2019) [720p] [YTS] [YIFY]
View Torrent Info: Mary (2019) [720p] [YTS] [YIFY]
Hot torrents
TV Torrents
View Torrent Info: Greys.Anatomy.S16E03.HDTV.x264-SVA[eztv]
View Torrent Info: Supernatural.S15E01.HDTV.x264-SVA[eztv]
View Torrent Info: How.to.Get.Away.with.Murder.S06E03.HDTV.x264-SVA[eztv]
View Torrent Info: The.Blacklist.S07E02.HDTV.x264-SVA[eztv]
View Torrent Info: Supergirl.S05E02.HDTV.x264-KILLERS[eztv]
View Torrent Info: Batwoman.S01E02.HDTV.x264-SVA[eztv]
View Torrent Info: The.War.Of.The.Worlds.2019.S01E01.HDTV.x264-FiHTV[eztv]
View Torrent Info: The.Good.Doctor.S03E04.HDTV.x264-SVA[eztv]
View Torrent Info: Young.Sheldon.S03E03.HDTV.x264-SVA[eztv]
View Torrent Info: Chicago.PD.S07E03.HDTV.x264-SVA[eztv]
ExtraTorrent.ag > Categories > Movies torrents > Bollywood/Desi torrents


Browse Movies torrents

Mirchi Malini 2018 1080p WEB-HD AAC 2.0 x264 [MW] torrent


Download torrent: Download Mirchi Malini 2018 1080p WEB-HD AAC 2.0 x264 [MW] torrent Magnet link Bookmark Torrent: Mirchi Malini 2018 1080p WEB-HD AAC 2.0 x264 [MW] Mirchi Malini 2018 1080p WEB-HD AAC 2.0 x264 [MW] torrent | if not working, try instead: Magnet Link
Info hash: 7C1477CA36C4380C9991DACE8EF154462CD05A16
Category: Categories > Movies torrents > Bollywood/Desi torrents
Trackers:
15    View all torrent trackers >
Health:
 seeds: 76 ,  leechers: 17 |  Update >
Total Size: 1.20 GB
Torrent status: Added by trusted uploader Added by trusted uploader Trusted Uploader Site Friend Superman Sun
Uploader: Trusted Uploader Site Friend Superman Sun
Torrent added: 2018-04-30 13:20:15
 

Download Mirchi Malini 2018 1080p WEB-HD AAC 2.0 x264 [MW] torrent if not working, try downloading torrent using Download Mirchi Malini 2018 1080p WEB-HD AAC 2.0 x264 [MW] via Magnet Link




Torrent Description





General
Format : Matroska
Format version : Version 4 / Version 2
File size : 1.25 GiB
Duration : 43 min 59 s
Overall bit rate : 4 061 kb/s

Video
ID : 1
Format : AVC
Format/Info : Advanced Video Codec
Format profile : [email protected]
Format settings : CABAC / 1 Ref Frames
Format settings, CABAC : Yes
Format settings, RefFrames : 1 frame
Format settings, GOP : M=1, N=25
Codec ID : V_MPEG4/ISO/AVC
Duration : 43 min 59 s
Bit rate mode : Constant
Bit rate : 3 963 kb/s
Nominal bit rate : 4 500 kb/s
Width : 1 920 pixels
Height : 1 080 pixels
Display aspect ratio : 16:9
Frame rate mode : Constant
Frame rate : 25.000 FPS
Color space : YUV
Chroma subsampling : 4:2:0
Bit depth : 8 bits
Scan type : Progressive
Bits/(Pixel*Frame) : 0.076
Stream size : 1.22 GiB (98%)
Default : Yes
Forced : No

Audio
ID : 2
Format : AAC
Format/Info : Advanced Audio Codec
Format profile : LC
Codec ID : A_AAC-2
Duration : 43 min 59 s
Bit rate : 96.0 kb/s
Channel(s) : 2 channels
Channel positions : Front: L R
Sampling rate : 48.0 kHz
Frame rate : 46.875 FPS (1024 SPF)
Compression mode : Lossy
Stream size : 30.2 MiB (2%)
Default : Yes
Forced : No















#moviezworldz -> To avoid fakes, ALWAYS check that the torrent was added on ExtraTorrent.ag by moviezworldz

https://extratorrent.ag/



Download Mirchi Malini 2018 1080p WEB-HD AAC 2.0 x264 [MW] torrent


Comments (please add your comment)
1
posted by Sameer8Nader5 (2018-04-30 17:33:51)
Sameer8Nader5 avatar Does the search option work in ET?


2
posted by iamdeepak97 (2018-04-30 21:23:18)
iamdeepak97 avatar Bakchodi series





Home - Browse Torrents - Upload Torrent - Stat - Forum - FAQ - Login
ExtraTorrent.ag is in compliance with copyrights
2006-2018 ExtraTorrent.ag

X
Attention! Use a VPN when Accessing Free Content !
Your IP address is - Country:
Your Internet provider Tracks your Activity! Hide your IP ADDRESS with a VPN!
Bonus: Get Lag-Free Streams & No popups with any VPN Purchased !

Download Here