ExtraTorrent.ag - The Largest Bittorent System Login   |    Register
Latest Articles
Most searched
Hot torrents
Movie Torrents
View Torrent Info: The Lion King (2019) [720p] [YTS] [YIFY]
View Torrent Info: Scary Stories to Tell in the Dark (2019) [720p] [YTS] [YIFY]
View Torrent Info: The Game Changers (2018) [720p] [YTS] [YIFY]
View Torrent Info: Among Thieves (2019) [720p] [YTS] [YIFY]
View Torrent Info: The Drone (2019) [720p] [YTS] [YIFY]
View Torrent Info: Robbery (2018) [720p] [YTS] [YIFY]
View Torrent Info: Intimacy (2001) [720p] [YTS] [YIFY]
View Torrent Info: Pig Hag (2019) [720p] [YTS] [YIFY]
View Torrent Info: Lucky Day (2019) [720p] [YTS] [YIFY]
View Torrent Info: Mary (2019) [720p] [YTS] [YIFY]
Hot torrents
TV Torrents
View Torrent Info: Greys.Anatomy.S16E03.HDTV.x264-SVA[eztv]
View Torrent Info: Supernatural.S15E01.HDTV.x264-SVA[eztv]
View Torrent Info: How.to.Get.Away.with.Murder.S06E03.HDTV.x264-SVA[eztv]
View Torrent Info: The.Blacklist.S07E02.HDTV.x264-SVA[eztv]
View Torrent Info: Supergirl.S05E02.HDTV.x264-KILLERS[eztv]
View Torrent Info: Batwoman.S01E02.HDTV.x264-SVA[eztv]
View Torrent Info: The.War.Of.The.Worlds.2019.S01E01.HDTV.x264-FiHTV[eztv]
View Torrent Info: The.Good.Doctor.S03E04.HDTV.x264-SVA[eztv]
View Torrent Info: Young.Sheldon.S03E03.HDTV.x264-SVA[eztv]
View Torrent Info: Chicago.PD.S07E03.HDTV.x264-SVA[eztv]
ExtraTorrent.ag > Categories > TV torrents > HD torrents


Browse TV torrents

Mirchi Music Awards 2018 - 720p HDTV Rip By SagarSingha(TeamDMR) torrent


Download torrent: Download Mirchi Music Awards 2018 - 720p HDTV Rip By SagarSingha(TeamDMR) torrent Magnet link Bookmark Torrent: Mirchi Music Awards 2018 - 720p HDTV Rip By SagarSingha(TeamDMR) Mirchi Music Awards 2018 - 720p HDTV Rip By SagarSingha(TeamDMR) torrent | if not working, try instead: Magnet Link
Info hash: 19C4CD4E30561F7C1CE1A2623085F79E7C7A0B2A
Category: Categories > TV torrents > HD torrents
Trackers:
14    View all torrent trackers >
Health:
 seeds: 0 ,  leechers: 0 |  Update >
Total Size: 1.30 GB
Torrent status: Added by trusted uploader Added by trusted uploader Trusted Uploader Site Friend Superman Sun
Uploader: Trusted Uploader Site Friend Superman Sun
Torrent added: 2018-03-25 15:35:48
 

Download Mirchi Music Awards 2018 - 720p HDTV Rip By SagarSingha(TeamDMR) torrent if not working, try downloading torrent using Download Mirchi Music Awards 2018 - 720p HDTV Rip By SagarSingha(TeamDMR) via Magnet Link




Torrent Description



General
Complete name : Mirchi Music Awards 2018 - 720p HDTV Rip.mp4
Format : MPEG-4
Format profile : Base Media
Codec ID : isom (isom/iso2/avc1/mp41)
File size : 1.30 GiB
Duration : 2 h 18 min
Overall bit rate mode : Variable
Overall bit rate : 1 339 kb/s
Writing application : Lavf57.82.101

Video
ID : 1
Format : AVC
Format/Info : Advanced Video Codec
Format profile : [email protected]
Format settings : CABAC / 4 Ref Frames
Format settings, CABAC : Yes
Format settings, RefFrames : 4 frames
Format settings, GOP : M=2, N=50
Codec ID : avc1
Codec ID/Info : Advanced Video Coding
Duration : 2 h 18 min
Bit rate mode : Constant
Bit rate : 1 196 kb/s
Width : 1 280 pixels
Height : 720 pixels
Display aspect ratio : 16:9
Frame rate mode : Variable
Frame rate : 24.924 FPS
Minimum frame rate : 0.100 FPS
Maximum frame rate : 25.000 FPS
Original frame rate : 25.000 FPS
Color space : YUV
Chroma subsampling : 4:2:0
Bit depth : 8 bits
Scan type : Progressive
Bits/(Pixel*Frame) : 0.052
Stream size : 1.16 GiB (89%)
Color range : Limited
Color primaries : BT.709
Transfer characteristics : BT.709
Matrix coefficients : BT.709

Audio
ID : 2
Format : AAC
Format/Info : Advanced Audio Codec
Format profile : LC
Codec ID : mp4a-40-2
Duration : 2 h 18 min
Bit rate mode : Variable
Bit rate : 140 kb/s
Maximum bit rate : 143 kb/s
Channel(s) : 2 channels
Channel positions : Front: L R
Sampling rate : 48.0 kHz
Frame rate : 46.875 FPS (1024 SPF)
Compression mode : Lossy
Stream size : 138 MiB (10%)
Default : Yes
Alternate group : 1





#sagara1234 -> To avoid fakes, ALWAYS check that the torrent was added on ExtraTorrent.ag by sagara1234

https://extratorrent.ag/



Download Mirchi Music Awards 2018 - 720p HDTV Rip By SagarSingha(TeamDMR) torrent


Comments (please add your comment)
No comments



Home - Browse Torrents - Upload Torrent - Stat - Forum - FAQ - Login
ExtraTorrent.ag is in compliance with copyrights
2006-2018 ExtraTorrent.ag

X
Attention! Use a VPN when Accessing Free Content !
Your IP address is - Country:
Your Internet provider Tracks your Activity! Hide your IP ADDRESS with a VPN!
Bonus: Get Lag-Free Streams & No popups with any VPN Purchased !

Download Here