ExtraTorrent.ag - The Largest Bittorent System Login   |    Register
ExtraTorrent.ag > Categories > Movies torrents > Bollywood/Desi torrents


Browse Movies torrents

Dil Se (1998) DvDrip 720p Hindi x264 ACC - LatestHDMovies torrent


Download torrent: Download Dil Se (1998) DvDrip 720p Hindi x264 ACC - LatestHDMovies torrent Magnet link Bookmark Torrent: Dil Se (1998) DvDrip 720p Hindi x264 ACC - LatestHDMovies Dil Se (1998) DvDrip 720p Hindi x264 ACC - LatestHDMovies torrent | if not working, try instead: Magnet Link
Info hash: F4491A910E59654DA262B42113D647F3852DD758
Category: Categories > Movies torrents > Bollywood/Desi torrents
Trackers:
15    View all torrent trackers >
Health:
 seeds: 29 ,  leechers: 25 |  Update >
Total Size: 1.50 GB
Torrent status: Added by trusted uploader Added by trusted uploader Trusted Uploader Site Friend Superman Sun
Uploader: Trusted Uploader Site Friend Superman Sun
Torrent added: 2018-02-25 05:22:21

Download Dil Se (1998) DvDrip 720p Hindi x264 ACC - LatestHDMovies torrent if not working, try downloading torrent using Download Dil Se (1998) DvDrip 720p Hindi x264 ACC - LatestHDMovies via Magnet Link




Torrent Description






[[[[[[[[[[SAMPLE]]]]]]]]]
https://openload.co/f/6W_i3X21tJY/vlc-record-2018-02-25-08h54m15s-LatestHDMovies-.mp4





General
Complete name : Dil Se (1998) DvDrip 720p Hindi x264 ACC - LatestHDMovies.mp4
Format : MPEG-4
Format profile : Base Media
Codec ID : isom (isom/iso2/avc1/mp41)
File size : 1.47 GiB
Duration : 2 h 44 min
Overall bit rate : 1 280 kb/s
Movie name : LatestHDMovies
Writing application : Lavf57.83.100
Cover : Yes

Video
ID : 1
Format : AVC
Format/Info : Advanced Video Codec
Format profile : [email protected]
Format settings : CABAC / 5 Ref Frames
Format settings, CABAC : Yes
Format settings, ReFrames : 5 frames
Codec ID : avc1
Codec ID/Info : Advanced Video Coding
Duration : 2 h 44 min
Bit rate : 1 152 kb/s
Width : 1 280 pixels
Height : 544 pixels
Display aspect ratio : 2.35:1
Frame rate mode : Constant
Frame rate : 23.976 (24000/1001) FPS
Color space : YUV
Chroma subsampling : 4:2:0
Bit depth : 8 bits
Scan type : Progressive
Bits/(Pixel*Frame) : 0.069
Stream size : 1.31 GiB (89%)
Writing library : x264 core 148 r2643 5c65704
Encoding settings : cabac=1 / ref=5 / deblock=1:0:0 / analyse=0x3:0x113 / me=hex / subme=7 / psy=1 / psy_rd=1.00:0.00 / mixed_ref=1 / me_range=16 / chroma_me=1 / trellis=1 / 8x8dct=1 / cqm=0 / deadzone=21,11 / fast_pskip=1 / chroma_qp_offset=-2 / threads=8 / lookahead_threads=8 / sliced_threads=1 / slices=8 / nr=0 / decimate=1 / interlaced=0 / bluray_compat=0 / constrained_intra=0 / bframes=0 / weightp=2 / keyint=250 / keyint_min=23 / scenecut=40 / intra_refresh=0 / rc=abr / mbtree=0 / bitrate=1152 / ratetol=1.0 / qcomp=0.60 / qpmin=0 / qpmax=69 / qpstep=4 / ip_ratio=1.40 / aq=1:1.00
Language : English

Audio
ID : 2
Format : AAC
Format/Info : Advanced Audio Codec
Format profile : LC
Codec ID : mp4a-40-2
Duration : 2 h 44 min
Duration_LastFrame : -11 ms
Bit rate mode : Constant
Bit rate : 132 kb/s
Channel(s) : 2 channels
Channel positions : Front: L R
Sampling rate : 48.0 kHz
Frame rate : 46.875 FPS (1024 SPF)
Compression mode : Lossy
Stream size : 153 MiB (10%)
Language : Hindi
Default : Yes
Alternate group : 1






#LHDM -> To avoid fakes, ALWAYS check that the torrent was added on ExtraTorrent.ag by LHDM

https://extratorrent.ag/



Download Dil Se (1998) DvDrip 720p Hindi x264 ACC - LatestHDMovies torrent


Comments (please add your comment)
No comments



Home - Browse Torrents - Upload Torrent - Stat - Forum - FAQ - Login
ExtraTorrent.ag is in compliance with copyrights
2006-2018 ExtraTorrent.ag

X
Attention! Use a VPN when Accessing Free Content !
Your IP address is - Country:
Your Internet provider Tracks your Activity! Hide your IP ADDRESS with a VPN!
Bonus: Get Lag-Free Streams & No popups with any VPN Purchased !

Download Here