ExtraTorrent.ag - The Largest Bittorent System Login   |    Register
Latest Articles
Most searched
Hot torrents
Movie Torrents
View Torrent Info: Annabelle Comes Home (2019) [720p] [YTS] [YIFY]
View Torrent Info: Child's Play (2019) [720p] [YTS] [YIFY]
View Torrent Info: Can You Keep a Secret? (2019) [720p] [YTS] [YIFY]
View Torrent Info: Inside Man: Most Wanted (2019) [720p] [YTS] [YIFY]
View Torrent Info: Tall Girl (2019) [720p] [YTS] [YIFY]
View Torrent Info: Haunt (2019) [720p] [YTS] [YIFY]
View Torrent Info: Mission Panda: Ein tierisches Team (2019) [720p] [YTS] [YIFY]
View Torrent Info: Shanghai Fortress (2019) [720p] [YTS] [YIFY]
View Torrent Info: All the Boys Love Mandy Lane (2006) [720p] [YTS] [YIFY]
View Torrent Info: Riot Girls (2019) [720p] [YTS] [YIFY]
Hot torrents
TV Torrents
View Torrent Info: Suits.S09E09.HDTV.x264-aAF[eztv]
View Torrent Info: American.Horror.Story.S09E01.HDTV.x264-SVA[eztv]
View Torrent Info: Power.S06E04.WEB.H264-iNSiDiOUS[eztv]
View Torrent Info: Pearson.S01E10.WEBRip.x264-TBS[eztv]
View Torrent Info: Americas.Got.Talent.S14E23.WEB.x264-TRUMP[eztv]
View Torrent Info: Bachelor.In.Paradise.S06E13.WEB.x264-TBS[eztv]
View Torrent Info: Titans.2018.S02E02.WEB.x264-PHOENiX[eztv]
View Torrent Info: Ballers.S05E04.WEB.H264-iNSiDiOUS[eztv]
View Torrent Info: MasterChef.US.S10E24.WEB.x264-TBS[eztv]
View Torrent Info: MasterChef.US.S10E25.WEB.x264-TBS[eztv]
ExtraTorrent.ag > Categories > Movies torrents > HD torrents


Browse Movies torrents

The Lion King 1.5 2004 1080p BluRay x264 DTS 5.1 MSubS - Hon3y torrent


Download torrent: Download The Lion King 1.5 2004 1080p BluRay x264 DTS 5.1 MSubS - Hon3y torrent Magnet link Bookmark Torrent: The Lion King 1.5 2004 1080p BluRay x264 DTS 5.1 MSubS - Hon3y The Lion King 1.5 2004 1080p BluRay x264 DTS 5.1 MSubS - Hon3y torrent | if not working, try instead: Magnet Link
Info hash: 255E7F35E64B06741777AAB4BC145D3ECF715C49
Category: Categories > Movies torrents > HD torrents
Trackers:
14    View all torrent trackers >
Health:
 seeds: 3 ,  leechers: 7 |  Update >
Torrent language:  
Total Size: 4.50 GB
Torrent status: Added by trusted uploader Added by trusted uploader Trusted Uploader Site Friend Superman Sun
Uploader: Trusted Uploader Site Friend Superman Sun
Torrent added: 2018-02-18 17:21:12
 

Download The Lion King 1.5 2004 1080p BluRay x264 DTS 5.1 MSubS - Hon3y torrent if not working, try downloading torrent using Download The Lion King 1.5 2004 1080p BluRay x264 DTS 5.1 MSubS - Hon3y via Magnet Link




Torrent Description




The Lion King 1.5 2004 1080p BluRay x264 DTS 5.1 MSubS - Hon3y

Source: Remux @ Bludragon
Format : Matroska
Format version : Version 4 / Version 2
File size : 4.37 GiB
Duration : 1 h 16 min
Overall bit rate : 8 213 kb/s
Movie name : The Lion King 1.5 2004 - Hon3y


Video
ID : 1
Format : AVC
Format/Info : Advanced Video Codec
Format profile : [email protected]
Format settings, CABAC : Yes
Format settings, RefFrames : 4 frames
Codec ID : V_MPEG4/ISO/AVC
Duration : 1 h 16 min
Bit rate : 7 443 kb/s
Width : 1 824 pixels
Height : 1 080 pixels
Display aspect ratio : 5:3
Frame rate mode : Constant
Frame rate : 23.976 (24000/1001) FPS
Language : English
Default : Yes
Forced : No
Color range : Limited
Color primaries : BT.709
Transfer characteristics : BT.709
Matrix coefficients : BT.709

Audio
ID : 2
Format : DTS
Format/Info : Digital Theater Systems
Mode : 16
Format settings, Endianness : Big
Codec ID : A_DTS
Duration : 1 h 16 min
Bit rate mode : Constant
Bit rate : 768 kb/s
Channel(s) : 6 channels
Channel positions : Front: L C R, Side: L R, LFE
Sampling rate : 48.0 kHz
Frame rate : 93.750 FPS (512 SPF)
Bit depth : 24 bits
Compression mode : Lossy
Stream size : 419 MiB (9%)
Default : Yes
Forced : No

Text #1
ID : 3
Format : UTF-8
Codec ID : S_TEXT/UTF8
Codec ID/Info : UTF-8 Plain Text
Duration : 1 h 9 min
Bit rate : 56 b/s
Count of elements : 795
Stream size : 28.7 KiB (0%)
Language : English
Default : Yes
Forced : No

Text #2
ID : 4
Format : UTF-8
Codec ID : S_TEXT/UTF8
Codec ID/Info : UTF-8 Plain Text
Duration : 1 h 9 min
Bit rate : 64 b/s
Count of elements : 794
Stream size : 32.8 KiB (0%)
Language : French
Default : No
Forced : No

Text #3
ID : 5
Format : UTF-8
Codec ID : S_TEXT/UTF8
Codec ID/Info : UTF-8 Plain Text
Duration : 1 h 9 min
Bit rate : 58 b/s
Count of elements : 879
Stream size : 30.2 KiB (0%)
Language : Spanish
Default : No
Forced : No

Menu
00:00:00.000 : en:Chapter 1
00:01:56.116 : en:Chapter 2
00:08:22.543 : en:Chapter 3
00:12:28.164 : en:Chapter 4
00:17:00.686 : en:Chapter 5
00:22:34.519 : en:Chapter 6
00:29:19.466 : en:Chapter 7
00:34:20.558 : en:Chapter 8
00:38:19.005 : en:Chapter 9
00:40:22.169 : en:Chapter 10
00:45:33.021 : en:Chapter 11
00:50:09.423 : en:Chapter 12
00:54:52.455 : en:Chapter 13
00:59:02.872 : en:Chapter 14
01:06:18.432 : en:Chapter 15
01:10:25.012 : en:Chapter 16




#Hon3yHD -> To avoid fakes, ALWAYS check that the torrent was added on ExtraTorrent.ag by Hon3yHD

https://extratorrent.ag/



Download The Lion King 1.5 2004 1080p BluRay x264 DTS 5.1 MSubS - Hon3y torrent


Comments (please add your comment)
No comments



Home - Browse Torrents - Upload Torrent - Stat - Forum - FAQ - Login
ExtraTorrent.ag is in compliance with copyrights
2006-2018 ExtraTorrent.ag

X
Attention! Use a VPN when Accessing Free Content !
Your IP address is - Country:
Your Internet provider Tracks your Activity! Hide your IP ADDRESS with a VPN!
Bonus: Get Lag-Free Streams & No popups with any VPN Purchased !

Download Here