ExtraTorrent.ag - The Largest Bittorent System Login   |    Register
Latest Articles
Most searched
Hot torrents
Movie Torrents
View Torrent Info: Spider-Man: Far from Home (2019) [720p] [YTS] [YIFY]
View Torrent Info: Annabelle Comes Home (2019) [720p] [YTS] [YIFY]
View Torrent Info: Child's Play (2019) [720p] [YTS] [YIFY]
View Torrent Info: Spider-Man: Far from Home (2019) [720p] [YTS] [YIFY]
View Torrent Info: Can You Keep a Secret? (2019) [720p] [YTS] [YIFY]
View Torrent Info: Inside Man: Most Wanted (2019) [720p] [YTS] [YIFY]
View Torrent Info: Tall Girl (2019) [720p] [YTS] [YIFY]
View Torrent Info: Haunt (2019) [720p] [YTS] [YIFY]
View Torrent Info: Shanghai Fortress (2019) [720p] [YTS] [YIFY]
View Torrent Info: Mission Panda: Ein tierisches Team (2019) [720p] [YTS] [YIFY]
Hot torrents
TV Torrents
View Torrent Info: Suits.S09E09.HDTV.x264-aAF[eztv]
View Torrent Info: American.Horror.Story.S09E01.HDTV.x264-SVA[eztv]
View Torrent Info: Power.S06E04.WEB.H264-iNSiDiOUS[eztv]
View Torrent Info: Pearson.S01E10.WEBRip.x264-TBS[eztv]
View Torrent Info: Bachelor.In.Paradise.S06E13.WEB.x264-TBS[eztv]
View Torrent Info: Titans.2018.S02E02.WEB.x264-PHOENiX[eztv]
View Torrent Info: Ballers.S05E04.WEB.H264-iNSiDiOUS[eztv]
View Torrent Info: MasterChef.US.S10E25.WEB.x264-TBS[eztv]
View Torrent Info: MasterChef.US.S10E24.WEB.x264-TBS[eztv]
View Torrent Info: Fear.the.Walking.Dead.S05E14.WEB.h264-TBS[eztv]
ExtraTorrent.ag > Categories > Movies torrents > HD torrents


Browse Movies torrents

Deadpool (2016) x 804 (1080p) DD5.1 - 2.0 x264 Phun Psyz torrent


Download torrent: Download Deadpool (2016) x 804 (1080p) DD5.1 - 2.0 x264 Phun Psyz torrent Magnet link Bookmark Torrent: Deadpool (2016) x 804 (1080p) DD5.1 - 2.0 x264 Phun Psyz Deadpool (2016) x 804 (1080p) DD5.1 - 2.0 x264 Phun Psyz torrent | if not working, try instead: Magnet Link
Info hash: 5292746DCFFC187EBBE59FD56C972BE5F4E17901
Category: Categories > Movies torrents > HD torrents
Trackers:
11    View all torrent trackers >
Health:
 seeds: 11 ,  leechers: 2 |  Update >
Torrent language:  
Total Size: 1.80 GB
Torrent status: Added by trusted uploader Added by trusted uploader Trusted Uploader Site Friend Superman Sun
Uploader: Trusted Uploader Site Friend Superman Sun
Torrent added: 2017-12-20 17:11:51
 

Download Deadpool (2016) x 804 (1080p) DD5.1 - 2.0 x264 Phun Psyz torrent if not working, try downloading torrent using Download Deadpool (2016) x 804 (1080p) DD5.1 - 2.0 x264 Phun Psyz via Magnet Link




Torrent Description

www.imdb.com/title/tt1431045/

A fast-talking mercenary with a morbid sense of humor is subjected to a rogue experiment that leaves him with accelerated healing powers and a quest for revenge.

Source: EMERALD (4K) (x265) (16.3 GiB)





Format : MPEG-4
Format profile : Base Media / Version 2
Codec ID : mp42 (isom/iso2/avc1/mp41)
File size : 1.75 GiB
Duration : 1 h 48 min
Overall bit rate mode : Variable
Overall bit rate : 2 324 kb/s
Writing application : HandBrake 1.0.7 2017040900

Video
ID : 1
Format : AVC
Format/Info : Advanced Video Codec
Format profile : [email protected]
Format settings : CABAC / 8 Ref Frames
Format settings, CABAC : Yes
Format settings, RefFrames : 8 frames
Codec ID : avc1
Codec ID/Info : Advanced Video Coding
Duration : 1 h 48 min
Bit rate : 1 836 kb/s
Width : 1 920 pixels
Height : 804 pixels
Display aspect ratio : 2.40:1
Frame rate mode : Variable
Frame rate : 23.976 (24000/1001) FPS
Minimum frame rate : 23.974 FPS
Maximum frame rate : 23.981 FPS
Color space : YUV
Chroma subsampling : 4:2:0
Bit depth : 8 bits
Scan type : Progressive
Bits/(Pixel*Frame) : 0.050
Stream size : 1.39 GiB (79%)
Writing library : x264 core 148 r2708 86b7198
Color range : Limited
Color primaries : BT.2020
Transfer characteristics : PQ
Matrix coefficients : BT.2020 non-constant
Menus : 4

Audio #1
ID : 2
Format : AC-3
Format/Info : Audio Coding 3
Format settings, Endianness : Big
Codec ID : ac-3
Duration : 1 h 48 min
Bit rate mode : Constant
Bit rate : 320 kb/s
Channel(s) : 6 channels
Channel positions : Front: L C R, Side: L R, LFE
Sampling rate : 48.0 kHz
Frame rate : 31.250 FPS (1536 SPF)
Bit depth : 16 bits
Compression mode : Lossy
Stream size : 247 MiB (14%)
Title : Surround / Surround
Language : English
Service kind : Complete Main
Default : Yes
Alternate group : 1
Fallback To : 3

Audio #2
ID : 3
Format : AAC
Format/Info : Advanced Audio Codec
Format profile : LC
Codec ID : mp4a-40-2
Duration : 1 h 48 min
Bit rate mode : Variable
Bit rate : 160 kb/s
Channel(s) : 2 channels
Channel positions : Front: L R
Sampling rate : 48.0 kHz
Frame rate : 46.875 FPS (1024 SPF)
Compression mode : Lossy
Stream size : 124 MiB (7%)
Title : Stereo / Stereo
Language : English
Default : Inherited From: 2
Alternate group : 1
Fallback From : 2
Menus : 4

Menu
ID : 4
Codec ID : text
Duration : 1 h 48 min
Language : English
Bit rate mode : CBR
Menu For : 1,3
00:00:00.000 : 00:00:00.000
00:03:04.726 : 00:03:04.726
00:05:53.019 : 00:05:53.019
00:09:30.820 : 00:09:30.820
00:13:19.090 : 00:13:19.090
00:16:48.716 : 00:16:48.716
00:20:12.586 : 00:20:12.545
00:22:06.408 : 00:22:06.408
00:27:09.628 : 00:27:09.628
00:31:58.959 : 00:31:58.959
00:36:51.710 : 00:36:51.709
00:41:06.172 : 00:41:06.172
00:44:45.766 : 00:44:45.766
00:46:56.605 : 00:46:56.605
00:50:10.966 : 00:50:10.966
00:53:18.028 : 00:53:18.028
00:55:33.038 : 00:55:33.038
00:59:07.794 : 00:59:07.753
01:03:05.240 : 01:03:05.240
01:07:06.439 : 01:07:06.439
01:09:15.610 : 01:09:15.568
01:12:29.720 : 01:12:29.720
01:16:46.393 : 01:16:46.393
01:20:43.714 : 01:20:43.714
01:25:53.398 : 01:25:53.398
01:31:03.792 : 01:31:03.792
01:34:46.973 : 01:34:46.973
01:39:52.737 : 01:39:52.737



#phunpsyz -> To avoid fakes, ALWAYS check that the torrent was added on ExtraTorrent.ag by phunpsyz

https://extratorrent.ag/



Download Deadpool (2016) x 804 (1080p) DD5.1 - 2.0 x264 Phun Psyz torrent


Comments (please add your comment)
No comments



Home - Browse Torrents - Upload Torrent - Stat - Forum - FAQ - Login
ExtraTorrent.ag is in compliance with copyrights
2006-2018 ExtraTorrent.ag

X
Attention! Use a VPN when Accessing Free Content !
Your IP address is - Country:
Your Internet provider Tracks your Activity! Hide your IP ADDRESS with a VPN!
Bonus: Get Lag-Free Streams & No popups with any VPN Purchased !

Download Here