ExtraTorrent.ag - The Largest Bittorent System Login   |    Register
Latest Articles
Most searched
Hot torrents
Movie Torrents
View Torrent Info: Spider-Man: Far from Home (2019) [720p] [YTS] [YIFY]
View Torrent Info: Child's Play (2019) [720p] [YTS] [YIFY]
View Torrent Info: Can You Keep a Secret? (2019) [720p] [YTS] [YIFY]
View Torrent Info: Anna (2019) [720p] [YTS] [YIFY]
View Torrent Info: Haunt (2019) [720p] [YTS] [YIFY]
View Torrent Info: Anna (2019) [720p] [YTS] [YIFY]
View Torrent Info: Artik (2019) [720p] [YTS] [YIFY]
View Torrent Info: Penguins (2019) [720p] [YTS] [YIFY]
View Torrent Info: The Death and Life of John F. Donovan (2018) [720p] [YTS] [YIFY]
View Torrent Info: Behind the Bullet (2019) [720p] [YTS] [YIFY]
Hot torrents
TV Torrents
View Torrent Info: Suits.S09E08.HDTV.x264-aAF[eztv]
View Torrent Info: Power.S06E04.WEB.H264-iNSiDiOUS[eztv]
View Torrent Info: Titans.2018.S02E02.WEB.x264-PHOENiX[eztv]
View Torrent Info: Pennyworth.S01E08.WEBRip.x264-TBS[eztv]
View Torrent Info: pearson.s01e09.webrip.x264-tbs[eztv]
View Torrent Info: WWE.Monday.Night.Raw.2019.09.09.HDTV.x264-NWCHD[eztv]
View Torrent Info: Fear.the.Walking.Dead.S05E14.WEB.h264-TBS[eztv]
View Torrent Info: masterchef.us.s10e23.web.x264-tbs[eztv]
View Torrent Info: Last.Week.Tonight.With.John.Oliver.S06E22.HDTV.x264-UAV[eztv]
View Torrent Info: americas.got.talent.s14e20.web.x264-trump[eztv]
ExtraTorrent.ag > Categories > Movies torrents > HEVC/x265 torrents


Browse Movies torrents

The Lion King (1994) (1080p x265 HEVC 10bit AAC 5.1) [Prof] torrent


Download torrent: Download The Lion King (1994) (1080p x265 HEVC 10bit AAC 5.1) [Prof] torrent Magnet link Bookmark Torrent: The Lion King (1994) (1080p x265 HEVC 10bit AAC 5.1) [Prof] The Lion King (1994) (1080p x265 HEVC 10bit AAC 5.1) [Prof] torrent | if not working, try instead: Magnet Link
Info hash: DAECC91ED08807298A893566B5AB0B1C03795C38
Category: Categories > Movies torrents > HEVC/x265 torrents
Trackers:
5    View all torrent trackers >
Health:
 seeds: 8 ,  leechers: 7 |  Update >
Torrent language:  
Total Size: 2.40 GB
Torrent status: Added by trusted uploader Added by trusted uploader Trusted Uploader Site Friend Superman Sun
Uploader: Trusted Uploader Site Friend Superman Sun
Torrent added: 2017-09-29 17:44:00
 

Download The Lion King (1994) (1080p x265 HEVC 10bit AAC 5.1) [Prof] torrent if not working, try downloading torrent using Download The Lion King (1994) (1080p x265 HEVC 10bit AAC 5.1) [Prof] via Magnet Link




Torrent Description

Format : Matroska
Format version : Version 4 / Version 2
File size : 2.44 GiB
Duration : 1 h 28 min
Overall bit rate : 3 956 kb/s
Movie name : The Lion King Signature Collection
Encoded date : UTC 2017-09-22 21:47:31
Writing application : mkvmerge v9.6.0 ('Slave To Your Mind') 64bit
Writing library : libebml v1.3.4 + libmatroska v1.4.5

Video
ID : 1
Format : HEVC
Format/Info : High Efficiency Video Coding
Format profile : Main [email protected]@Main
Codec ID : V_MPEGH/ISO/HEVC
Duration : 1 h 28 min
Bit rate : 2 871 kb/s
Width : 1 920 pixels
Height : 1 080 pixels
Display aspect ratio : 16:9
Frame rate mode : Constant
Frame rate : 23.976 (24000/1001) FPS
Color space : YUV
Chroma subsampling : 4:2:0
Bit depth : 10 bits
Bits/(Pixel*Frame) : 0.058
Stream size : 1.77 GiB (73%)
Writing library : x265 2.1+69-c97c64ab8b8e:[Windows][GCC 6.2.0][64 bit] 10bit
Encoding settings : cpuid=1173503 / frame-threads=2 / numa-pools=4 / wpp / no-pmode / no-pme / no-psnr / no-ssim / log-level=2 / input-csp=1 / input-res=1920x1080 / interlace=0 / total-frames=127158 / level-idc=0 / high-tier=1 / uhd-bd=0 / ref=4 / no-allow-non-conformance / no-repeat-headers / annexb / no-aud / no-hrd / info / hash=0 / no-temporal-layers / open-gop / min-keyint=23 / keyint=250 / bframes=4 / b-adapt=2 / b-pyramid / bframe-bias=0 / rc-lookahead=25 / lookahead-slices=4 / scenecut=40 / no-intra-refresh / ctu=64 / min-cu-size=8 / rect / no-amp / max-tu-size=32 / tu-inter-depth=1 / tu-intra-depth=1 / limit-tu=0 / rdoq-level=2 / signhide / no-tskip / nr-intra=0 / nr-inter=0 / no-constrained-intra / strong-intra-smoothing / max-merge=3 / limit-refs=3 / limit-modes / me=3 / subme=3 / merange=57 / temporal-mvp / weightp / no-weightb / no-analyze-src-pics / deblock=0:0 / sao / no-sao-non-deblock / rd=4 / no-early-skip / rskip / no-fast-intra / no-tskip-fast / no-cu-lossless / no-b-intra / rdpenalty=0 / psy-rd=2.00 / psy-rdoq=1.00 / no-rd-refine / analysis-mode=0 / no-lossless / cbqpoffs=0 / crqpoffs=0 / rc=crf / crf=18.0 / qcomp=0.60 / qpstep=4 / stats-write=0 / stats-read=0 / ipratio=1.40 / pbratio=1.30 / aq-mode=1 / aq-strength=1.00 / cutree / zone-count=0 / no-strict-cbr / qg-size=32 / no-rc-grain / qpmax=69 / qpmin=0 / sar=0 / overscan=0 / videoformat=5 / range=0 / colorprim=2 / transfer=2 / colormatrix=2 / chromaloc=0 / display-window=0 / max-cll=0,0 / min-luma=0 / max-luma=1023 / log2-max-poc-lsb=8 / vui-timing-info / vui-hrd-info / slices=1 / opt-qp-pps / opt-ref-list-length-pps / no-multi-pass-opt-rps / scenecut-bias=0.05
Default : Yes
Forced : No

Audio
ID : 2
Format : AAC
Format/Info : Advanced Audio Codec
Format profile : LC
Codec ID : A_AAC
Duration : 1 h 28 min
Bit rate : 1 042 kb/s
Channel(s) : 6 channels
Channel positions : Front: L C R, Side: L R, LFE
Sampling rate : 48.0 kHz
Frame rate : 46.875 FPS (1024 spf)
Compression mode : Lossy
Delay relative to video : 9 ms
Stream size : 659 MiB (26%)
Language : English
Default : No
Forced : No

Text #1
ID : 3
Format : PGS
Muxing mode : zlib
Codec ID : S_HDMV/PGS
Codec ID/Info : Picture based subtitle format used on BDs/HD-DVDs
Duration : 1 h 27 min
Bit rate : 12.2 kb/s
Count of elements : 2660
Stream size : 7.62 MiB (0%)
Language : English
Default : No
Forced : No

Text #2
ID : 4
Format : PGS
Muxing mode : zlib
Codec ID : S_HDMV/PGS
Codec ID/Info : Picture based subtitle format used on BDs/HD-DVDs
Duration : 1 h 27 min
Bit rate : 29.1 kb/s
Count of elements : 3842
Stream size : 18.3 MiB (1%)
Language : English
Default : No
Forced : No

Menu
00:00:00.000 : en:Chapter 01
00:04:40.071 : en:Chapter 02
00:08:10.406 : en:Chapter 03
00:11:28.979 : en:Chapter 04
00:14:09.557 : en:Chapter 05
00:17:51.028 : en:Chapter 06
00:22:54.748 : en:Chapter 07
00:25:36.117 : en:Chapter 08
00:30:24.197 : en:Chapter 09
00:35:52.150 : en:Chapter 10
00:40:14.078 : en:Chapter 11
00:41:14.430 : en:Chapter 12
00:44:16.945 : en:Chapter 13
00:48:20.564 : en:Chapter 14
00:50:07.212 : en:Chapter 15
00:53:14.774 : en:Chapter 16
00:57:50.842 : en:Chapter 17
01:00:56.569 : en:Chapter 18
01:02:32.331 : en:Chapter 19
01:08:49.625 : en:Chapter 20
01:12:41.023 : en:Chapter 21
01:16:42.306 : en:Chapter 22
01:20:45.131 : en:Chapter 23
01:23:23.873 : en:Chapter 24



#Prof -> To avoid fakes, ALWAYS check that the torrent was added on ExtraTorrent.ag by Prof

https://extratorrent.ag/



Download The Lion King (1994) (1080p x265 HEVC 10bit AAC 5.1) [Prof] torrent


Comments (please add your comment)
No comments



Home - Browse Torrents - Upload Torrent - Stat - Forum - FAQ - Login
ExtraTorrent.ag is in compliance with copyrights
2006-2018 ExtraTorrent.ag

X
Attention! Use a VPN when Accessing Free Content !
Your IP address is - Country:
Your Internet provider Tracks your Activity! Hide your IP ADDRESS with a VPN!
Bonus: Get Lag-Free Streams & No popups with any VPN Purchased !

Download Here