ExtraTorrent.ag - The Largest Bittorent System Login   |    Register
Latest Articles
Most searched
Hot torrents
Movie Torrents
View Torrent Info: Men in Black: International (2019) [720p] [YTS] [YIFY]
View Torrent Info: Men in Black: International (2019) [720p] [YTS] [YIFY]
View Torrent Info: Astro Kid (2019) [720p] [YTS] [YIFY]
View Torrent Info: The Flood (2019) [720p] [YTS] [YIFY]
View Torrent Info: Burn (2019) [720p] [YTS] [YIFY]
View Torrent Info: Hoax (2019) [720p] [YTS] [YIFY]
View Torrent Info: Tone-Deaf (2019) [720p] [YTS] [YIFY]
View Torrent Info: Magellan (2017) [720p] [YTS] [YIFY]
View Torrent Info: Now Is Good (2012) [720p] [YTS] [YIFY]
View Torrent Info: Camp Wedding (2019) [720p] [YTS] [YIFY]
Hot torrents
TV Torrents
View Torrent Info: Suits.S09E06.HDTV.x264-aAF[eztv]
View Torrent Info: The.100.S06E13.HDTV.x264-SVA[eztv]
View Torrent Info: Queen.of.the.South.S04E12.HDTV.x264-SVA[eztv]
View Torrent Info: bachelor.in.paradise.s06e06.web.h264-tbs[eztv]
View Torrent Info: preacher.s04e05.web.h264-tbs[eztv]
View Torrent Info: bachelor.in.paradise.s06e05.web.h264-tbs[eztv]
View Torrent Info: Killjoys.S05E06.480p.x264-mSD[eztv]
View Torrent Info: Animal.Kingdom.US.S04E13.HDTV.x264-SVA[eztv]
View Torrent Info: fear.the.walking.dead.s05e11.web.h264-tbs[eztv]
View Torrent Info: pearson.s01e06.webrip.x264-tbs[eztv]
ExtraTorrent.ag > Categories > Movies torrents > HD torrents


Browse Movies torrents

Marenostrum.Part.2.After.Dark.3D.2011.720p.BluRay.x264-PussyFoot torrent


Download torrent: Download Marenostrum.Part.2.After.Dark.3D.2011.720p.BluRay.x264-PussyFoot torrent Magnet link Bookmark Torrent: Marenostrum.Part.2.After.Dark.3D.2011.720p.BluRay.x264-PussyFoot Marenostrum.Part.2.After.Dark.3D.2011.720p.BluRay.x264-PussyFoot torrent | if not working, try instead: Magnet Link
Info hash: AB8B2D8618A090374CC03D84F1E45A3D3B2449FF
Category: Categories > Movies torrents > HD torrents
Trackers:
14    View all torrent trackers >
Health:
 seeds: 6 ,  leechers: 6 |  Update >
Torrent language:  
Total Size: 2.20 GB
Torrent status: Added by trusted uploader Added by trusted uploader Trusted Uploader Site Friend Superman Sun
Uploader: Trusted Uploader Site Friend Superman Sun
Torrent added: 2017-08-07 00:04:37
 

Download Marenostrum.Part.2.After.Dark.3D.2011.720p.BluRay.x264-PussyFoot torrent if not working, try downloading torrent using Download Marenostrum.Part.2.After.Dark.3D.2011.720p.BluRay.x264-PussyFoot via Magnet Link




Torrent Description

Marenostrum.Part.2.After.Dark.3D.2011.720p.BluRay.x264-PussyFoot





Complete name : marenostrum.part.2.after.dark.3d.2011.720p.bluray.x264-pussyfoot.mkv
Format : Matroska
Format version : Version 2
File size : 2.18 GiB
Duration : 54 min 17 s
Overall bit rate : 5 758 kb/s
Writing application : mkvmerge v6.6.0 ('The Edge Of The In Between') built on Dec 1 2013 17:55:00
Writing library : libebml v1.3.0 + libmatroska v1.4.1

Video
ID : 1
Format : AVC
Format/Info : Advanced Video Codec
Format profile : [email protected]
Format settings, CABAC : Yes
Format settings, ReFrames : 5 frames
Codec ID : V_MPEG4/ISO/AVC
Duration : 54 min 17 s
Bit rate : 4 245 kb/s
Width : 1 280 pixels
Height : 720 pixels
Display aspect ratio : 16:9
Frame rate mode : Constant
Frame rate : 23.976 FPS
Color space : YUV
Chroma subsampling : 4:2:0
Bit depth : 8 bits
Scan type : Progressive
Bits/(Pixel*Frame) : 0.192
Stream size : 1.57 GiB (72%)
Writing library : x264 core 152 r2851 ba24899
Encoding settings : cabac=1 / ref=5 / deblock=1:-2:-2 / analyse=0x3:0x133 / me=umh / subme=8 / psy=1 / psy_rd=1.00:0.15 / mixed_ref=1 / me_range=16 / chroma_me=1 / trellis=2 / 8x8dct=1 / cqm=0 / deadzone=21,11 / fast_pskip=0 / chroma_qp_offset=-3 / threads=12 / lookahead_threads=2 / sliced_threads=0 / nr=0 / decimate=1 / interlaced=0 / bluray_compat=0 / constrained_intra=0 / bframes=3 / b_pyramid=2 / b_adapt=2 / b_bias=0 / direct=3 / weightb=1 / open_gop=0 / weightp=2 / keyint=240 / keyint_min=24 / scenecut=40 / intra_refresh=0 / rc_lookahead=50 / rc=2pass / mbtree=1 / bitrate=4245 / ratetol=1.0 / qcomp=0.60 / qpmin=0 / qpmax=69 / qpstep=4 / cplxblur=20.0 / qblur=0.5 / ip_ratio=1.40 / aq=1:1.00
Language : English
Default : Yes
Forced : No

Audio
ID : 2
Format : DTS
Format/Info : Digital Theater Systems
Mode : 16
Format settings, Endianness : Big
Codec ID : A_DTS
Duration : 54 min 17 s
Bit rate mode : Constant
Bit rate : 1 509 kb/s
Channel(s) : 6 channels
Channel positions : Front: L C R, Side: L R, LFE
Sampling rate : 48.0 kHz
Frame rate : 93.750 FPS (512 spf)
Bit depth : 24 bits
Compression mode : Lossy
Stream size : 586 MiB (26%)
Language : English
Default : Yes
Forced : No

Menu
00:00:00.000 : en:00:00:00.000
00:09:59.974 : en:00:09:59.974
00:19:59.990 : en:00:19:59.990
00:29:59.965 : en:00:29:59.965
00:39:59.981 : en:00:39:59.981
00:49:59.955 : en:00:49:59.955






Click To View Screenshot

Click To View Screenshot

Click To View Screenshot



#showstopper -> To avoid fakes, ALWAYS check that the torrent was added on ExtraTorrent.ag by showstopper

https://extratorrent.ag/



Download Marenostrum.Part.2.After.Dark.3D.2011.720p.BluRay.x264-PussyFoot torrent


Comments (please add your comment)
No comments



Home - Browse Torrents - Upload Torrent - Stat - Forum - FAQ - Login
ExtraTorrent.ag is in compliance with copyrights
2006-2018 ExtraTorrent.ag

X
Attention! Use a VPN when Accessing Free Content !
Your IP address is - Country:
Your Internet provider Tracks your Activity! Hide your IP ADDRESS with a VPN!
Bonus: Get Lag-Free Streams & No popups with any VPN Purchased !

Download Here