ExtraTorrent.ag - The Largest Bittorent System Login   |    Register
Latest Articles
Most searched
Hot torrents
Movie Torrents
View Torrent Info: Annabelle Comes Home (2019) [720p] [YTS] [YIFY]
View Torrent Info: Child's Play (2019) [720p] [YTS] [YIFY]
View Torrent Info: Can You Keep a Secret? (2019) [720p] [YTS] [YIFY]
View Torrent Info: Inside Man: Most Wanted (2019) [720p] [YTS] [YIFY]
View Torrent Info: Tall Girl (2019) [720p] [YTS] [YIFY]
View Torrent Info: Haunt (2019) [720p] [YTS] [YIFY]
View Torrent Info: Mission Panda: Ein tierisches Team (2019) [720p] [YTS] [YIFY]
View Torrent Info: Shanghai Fortress (2019) [720p] [YTS] [YIFY]
View Torrent Info: All the Boys Love Mandy Lane (2006) [720p] [YTS] [YIFY]
View Torrent Info: Riot Girls (2019) [720p] [YTS] [YIFY]
Hot torrents
TV Torrents
View Torrent Info: Suits.S09E09.HDTV.x264-aAF[eztv]
View Torrent Info: American.Horror.Story.S09E01.HDTV.x264-SVA[eztv]
View Torrent Info: Power.S06E04.WEB.H264-iNSiDiOUS[eztv]
View Torrent Info: Pearson.S01E10.WEBRip.x264-TBS[eztv]
View Torrent Info: Americas.Got.Talent.S14E23.WEB.x264-TRUMP[eztv]
View Torrent Info: Bachelor.In.Paradise.S06E13.WEB.x264-TBS[eztv]
View Torrent Info: Titans.2018.S02E02.WEB.x264-PHOENiX[eztv]
View Torrent Info: Ballers.S05E04.WEB.H264-iNSiDiOUS[eztv]
View Torrent Info: MasterChef.US.S10E24.WEB.x264-TBS[eztv]
View Torrent Info: MasterChef.US.S10E25.WEB.x264-TBS[eztv]
ExtraTorrent.ag > Categories > TV torrents > House Of Cards torrents


Browse TV torrents

House of Cards (2013) Season 01 S01 (1080p NF WEBRip x265 HEVC 10bit AAC 5.1 Joy) [UTR] torrent


Download torrent: Magnet link Bookmark Torrent: House of Cards (2013) Season 01 S01 (1080p NF WEBRip x265 HEVC 10bit AAC 5.1 Joy) [UTR] Download House of Cards (2013) Season 01 S01 (1080p NF WEBRip x265 HEVC 10bit AAC 5.1 Joy) [UTR] torrent (magnet link)
Info hash: B6658A88F937308F2DEB9ED5FF4C560BCB661D16
Category: Categories > TV torrents > House Of Cards torrents
Trackers:
16    View all torrent trackers >
Health:
 seeds: 0 ,  leechers: 0 |  Update >
Torrent language:  
Total Size: 5.32 GB
Torrent status: Added by trusted uploader Added by trusted uploader Trusted Uploader Site Friend Superman Sun
Uploader: Trusted Uploader Site Friend Superman Sun
 

Download House of Cards (2013) Season 01 S01 (1080p NF WEBRip x265 HEVC 10bit AAC 5.1 Joy) [UTR] via Magnet Link




Torrent Description










[CENTER]

Media Information

Media Information

Code:

General
Format : Matroska
Format version : Version 4 / Version 2
File size : 443 MiB
Duration : 55 min 57 s
Overall bit rate : 1 106 kb/s
Encoded date : UTC 2015-05-23 02:18:21
Writing application : mkvmerge v7.9.0 ('Birds') 64bit
Writing library : libebml v1.3.1 + libmatroska v1.4.2

Video
ID : 1
Format : HEVC
Format/Info : High Efficiency Video Coding
Format profile : Main [email protected]@Main
Codec ID : V_MPEGH/ISO/HEVC
Duration : 55 min 57 s
Bit rate : 906 kb/s
Width : 1 920 pixels
Height : 960 pixels
Display aspect ratio : 2.000
Frame rate mode : Constant
Frame rate : 23.976 (24000/1001) FPS
Original frame rate : 23.976 (23976/1000) FPS
Color space : YUV
Chroma subsampling : 4:2:0
Bit depth : 10 bits
Bits/(Pixel*Frame) : 0.021
Stream size : 363 MiB (82%)
Writing library : x265 1.7+2-d7b100e51e82:[Windows][GCC 4.8.2][64 bit] 16bpp
Encoding settings : wpp / ctu=64 / min-cu-size=8 / max-tu-size=32 / tu-intra-depth=1 / tu-inter-depth=1 / me=1 / subme=2 / merange=57 / no-rect / no-amp / max-merge=2 / temporal-mvp / no-early-skip / rdpenalty=0 / no-tskip / no-tskip-fast / strong-intra-smoothing / no-lossless / no-cu-lossless / no-constrained-intra / no-fast-intra / open-gop / no-temporal-layers / interlace=0 / keyint=250 / min-keyint=23 / scenecut=40 / rc-lookahead=20 / lookahead-slices=0 / bframes=4 / bframe-bias=0 / b-adapt=2 / ref=3 / weightp / no-weightb / aq-mode=1 / aq-strength=1.00 / cbqpoffs=0 / crqpoffs=0 / rd=3 / psy-rd=0.30 / rdoq-level=0 / psy-rdoq=0.00 / signhide / deblock / sao / no-sao-non-deblock / b-pyramid / cutree / rc=2 / pass / bitrate=905 / qcomp=0.60 / qpmin=0 / qpmax=51 / qpstep=4 / cplxblur=20.0 / qblur=0.5 / ipratio=1.40 / pbratio=1.30
Default : Yes
Forced : No

Audio
ID : 2
Format : AAC
Format/Info : Advanced Audio Codec
Format profile : HE-AAC / LC
Codec ID : A_AAC
Duration : 55 min 57 s
Bit rate : 192 kb/s
Channel(s) : 6 channels
Channel positions : Front: L C R, Side: L R, LFE
Sampling rate : 48.0 kHz / 24.0 kHz
Frame rate : 23.438 FPS (1024 spf)
Compression mode : Lossy
Delay relative to video : 31 ms
Stream size : 76.8 MiB (17%)
Language : English
Default : Yes
Forced : No

Subtitle
ID : 3
Format : VobSub
Muxing mode : zlib
Codec ID : S_VOBSUB
Codec ID/Info : Picture based subtitle format used on DVDs
Duration : 53 min 3 s
Bit rate : 6 753 b/s
Count of elements : 746
Stream size : 2.56 MiB (1%)
Language : English
Default : No
Forced : No

Menu
00:00:00.000 : en:00:00:00.000
00:04:59.299 : en:00:04:59.299
00:11:28.062 : en:00:11:28.062
00:20:00.908 : en:00:20:00.908
00:30:52.559 : en:00:30:52.559
00:40:10.158 : en:00:40:10.158
00:49:55.451 : en:00:49:55.451
00:53:43.554 : en:00:53:43.554



Source Information

Code:

Release:
Joy's Back Catalog




We have no issue with individuals posting or re-uploading our torrents on a platform we aren't on. However, if this is something you'd like to do, please do so in a 'as-is' format. We ask that you do not create a new torrent, include all descriptions you see above including the UTR logo, tags, notes and screenshots. If you'd like to become a permanent poster on a website we don't post to, feel free to get in contact with a UniTeam member.



#UTR -> To avoid fakes, ALWAYS check that the torrent was added on ExtraTorrent.ag by UTR

https://extratorrent.ag/




Comments (please add your comment)
No comments



Home - Browse Torrents - Upload Torrent - Stat - Forum - FAQ - Login
ExtraTorrent.ag is in compliance with copyrights
2006-2018 ExtraTorrent.ag

X
Attention! Use a VPN when Accessing Free Content !
Your IP address is - Country:
Your Internet provider Tracks your Activity! Hide your IP ADDRESS with a VPN!
Bonus: Get Lag-Free Streams & No popups with any VPN Purchased !

Download Here